.
Авторизация | Регистрация
» » Восставший из ада 3: Ад на Земле / Hellraiser III: Hell on Earth (1992) DVD9 | P, A скачать через торрент бесплатно




    Восставший из ада 3: Ад на Земле / Hellraiser III: Hell on Earth (1992) DVD9 | P, A скачать через торрент бесплатно

    Опубликовал: Админ | Дата: 27-02-2015, 11:10 | Просмотров: 197



    Детально о кино
    Русское название: Восставший из ада 3: Ад на Земле
    Русское название в мировом прокате: Hellraiser III: Hell on Earth
    Создали в: 1992
    Категория жанра: ужасы
    Главный режиссер: Энтони Хикокс
    Актеры: Кевин Бернхардт, Лоуренс Морторфф, Терри Фаррелл, Кен Карпентер, Шэрон Хилл, Пола Маршалл, Роберт С. Тревилер, Кристофер Фредерик, Лоуренс Каппин, Шэрон Персивал

    Сюжет фильма:
    Недремлющее Зло вновь вырывается из своего потустороннего плена и начинает настоящую бойню. И, как это частенько водится, на всей планете есть только один человек, который в состоянии противостоять темной адской воле этого исчадия — милая и очаровательная тележурналистка Джоуи.




    Снималось в: США, Канада
    Киностудия: Fifth Avenue Entertainment, Trans Atlantic Entertainment
    Время просмотра: 93 мин. / 01:33
    Перевод текста 1: профессиональный (двухголосый, закадровый)
    Перевод текста 2: авторский (одноголосый, закадровый)

    Файл
    Кодек для видео: MPEG2
    Качество фильма: DVD9
    Информация о видео: PAL 16:9 (720x576@1024x576) VBR 6196 Kbps, 25.000 fps
    Информация о звуке 1: Dolby AC3, 6 ch, 48.0 KHz, 448 Kbps (А.Гаврилов; английский)
    Информация о звуке 2: DTS 6 ch, 48.0 KHz, 755 Kbps (П.Гланц и И.Королева)
    Субтитры: английские

    MediaInfo
    General
    Complete name : E:Vosstavshyi.iz.ada.III.DVD9VIDEO_TSVTS_01_1.VOB
    Format : MPEG-PS
    File size : 1 024 MiB
    Duration : 17mn 52s
    Overall bit rate mode : Variable
    Overall bit rate : 8 006 Kbps

    Video
    ID : 224 (0xE0)
    Format : MPEG Video
    Format version : Version 2
    Format profile : Main@Main
    Format settings, BVOP : No
    Format settings, Matrix : Default
    Format settings, GOP : M=3, N=13
    Duration : 17mn 52s
    Bit rate mode : Variable
    Bit rate : 6 196 Kbps
    Maximum bit rate : 8 200 Kbps
    Width : 720 pixels
    Height : 576 pixels
    Display aspect ratio : 2.40:1
    Frame rate : 25.000 fps
    Standard : PAL
    Color space : YUV
    Chroma subsampling : 4:2:0
    Bit depth : 8 bits
    Scan type : Interlaced
    Scan order : Top Field First
    Compression mode : Lossy
    Bits/(Pixel*Frame) : 0.598
    Time code of first frame : 09:59:59:00
    Time code source : Group of pictures t_head
    Stream size : 792 MiB (77%)
    Color primaries : BT.601 PAL
    Transfer characteristics : BT.470 System B, BT.470 System G
    Matrix coefficients : BT.601

    Audio #1
    ID : 189 (0xBD)-128 (0x80)
    Format : AC-3
    Format/Info : Audio Coding 3
    Mode extension : CM (complete main)
    Format settings, Endianness : Big
    Muxing mode : DVD-Video
    Duration : 17mn 52s
    Bit rate mode : Constant
    Bit rate : 448 Kbps
    Channel(s) : 6 channels
    Channel positions : Front: L C R, Side: L R, LFE
    Sampling rate : 48.0 KHz
    Bit depth : 16 bits
    Compression mode : Lossy
    Stream size : 57.3 MiB (6%)

    Audio #2
    ID : 189 (0xBD)-130 (0x82)
    Format : AC-3
    Format/Info : Audio Coding 3
    Mode extension : CM (complete main)
    Format settings, Endianness : Big
    Muxing mode : DVD-Video
    Duration : 17mn 52s
    Bit rate mode : Constant
    Bit rate : 448 Kbps
    Channel(s) : 6 channels
    Channel positions : Front: L C R, Side: L R, LFE
    Sampling rate : 48.0 KHz
    Bit depth : 16 bits
    Compression mode : Lossy
    Stream size : 57.3 MiB (6%)

    Audio #3
    ID : 189 (0xBD)-137 (0x89)
    Format : DTS
    Format/Info : Digital Theater Systems
    Mode : 16
    Format settings, Endianness : Big
    Muxing mode : DVD-Video
    Duration : 17mn 52s
    Bit rate mode : Constant
    Bit rate : 755 Kbps
    Channel(s) : 6 channels
    Channel positions : Front: L C R, Side: L R, LFE
    Sampling rate : 48.0 KHz
    Bit depth : 24 bits
    Compression mode : Lossy
    Stream size : 96.5 MiB (9%)

    Text
    ID : 189 (0xBD)-32 (0x20)
    Format : RLE
    Format/Info : Run-length encoding
    Muxing mode : DVD-Video
    Delay relative to video : 1s 880ms

    Menu

    Скриншоты для ознакомления

    Залил: carisha
    Размер скачиваемого торрента: 7.18 GB (7706435584 Bytes)

    Восставший из ада 3: Ад на Земле / Hellraiser III: Hell on Earth (1992) DVD9 | P, A скачать через торрент бесплатно
    загрузка...
    Рейтинг →
     (голосов: 1, оценка 5/5, голосовать можно 1 раз )

    Другие торренты по теме:

  • Восставшие из мертвых / Undead (2003) BDRip от R. G. Jolly Roger торрент скачать бесплатно
  • Восставший из ада 3: Ад на Земле / Hellraiser III: Hell on Earth (1992) BDRip торрент скачать бесплатно
  • Восставшие из мёртвых / Undead (2003) BDRip 1080p | P торрент скачать бесплатно
  • Восставший из ада 3: Ад на Земле / Hellraiser III: Hell on Earth (1992) BDRemux 1080p скачать через торрент бесплатно
  • Восставший из ада 4: Кровное родство / Hellraiser: Bloodline (1996) BDRip-AVC | P, A скачать через торрент бесплатно
  • Восставший из ада 3: Ад на Земле / Hellraiser III: Hell on Earth (1992) BDRip-AVC | P, A скачать через торрент бесплатно
  • Восставший из ада 2 / Hellbound: Hellraiser 2 (1988) BDRip-AVC | P, A скачать через торрент бесплатно
  • Восставший из ада / Hellraiser (1987) BDRip-AVC | P, A скачать через торрент бесплатно


    • Комментарии (0):

      Информация

      Информация

        Посетители, находящиеся в группе Гости, не могут оставлять комментарии в данной новости.

        ↓ Меню



        ↓ Опрос

        А Вы добавили сайт в закладки?
        Да
        Не


        Top 10 за неделю (Фильмы)