.
Авторизация | Регистрация
Хочешь лучшие торренты? Добавь свой email!
Добавить
» » Любовь и секс на Ибице / Verliefd op Ibiza (2013) BDRip | iPad скачать через торрент бесплатно




    Любовь и секс на Ибице / Verliefd op Ibiza (2013) BDRip | iPad скачать через торрент бесплатно

    Опубликовал: Админ | Дата: 27-02-2015, 11:10 | Просмотров: 227


    Детально о кино
    Русское название: Любовь и секс на Ибице / Verliefd op Ibiza
    Создали в: 2013
    Категория жанра: Мелодрама, комедия
    Главный режиссер: Йохан Нийенхейс
    Ведущие: Виллеке ван Аммельрой, Йим Баккум, Рик Энгелкес, Ким Феенстра, Джаспер Готтлиб, Мариус Готтлиб, Симоне Клейнсма, Ян Коейман, Лоне ван Росендал, Дэвид Люсиер


    Сюжет:
    Футболист Кевин только что заключил выгодный контракт с мадридским Реалом. Он вряд ли понимает, что делать со свалившимся на него богатством, но его подруга Эльза знает, как Кевин должен тратить свои миллионы… Две 40-летних подруги Джеки и Ирма хотя и проводят отпуск вместе, но имеют разные представления об идеальном отдыхе: Джеки предпочитает тусоваться с молодыми горячими парнями, тогда как Ирме милее спокойный отдых на пляже с книгой… Братья Дилан и Бойд мечтают стать DJ-звездами мирового класса… Пути всех этих героев пересекаются на острове Ибица.






    Тех. данные


    Время просмотра: 01:52:01
    Снималось в: Нидерланды, Farmhouse Film TV, Johan Nijenhuis Co, Mollywood, Tros Televisie
    Перевод текста: Профессиональный (многоголосый закадровый)
    Субтитры: Немецкиe
    Вид субтитров: Вшитые (полные, отключаемые)


    Файл
    Тип видео: M4V
    Качество фильма: BDRip SD 576p (исходник: BDRemux)
    Информация о видео: H.264, 1024x576, 16:9, 2 200 Kbps, 23.976 fps
    Информация о звуке: Русский/профессиональный (многоголосый закадровый) , AAC / 2.0 / 158 Kbps / 48.0 KHz; немецкий/оригинальная дорожка , AAC / 2.0 / 158 Kbps / 48.0 KHz
    iTunes Meta Tags, x264 log и MI:

    Sort Name: Любовь и секс на Ибице
    XID: Apple:vendor_id:2013-680158
    contentID: 680158
    Screenwriters: Тейс ван Марле, Anne-Louise Verboon, Маартен Лебенс
    Producers: Клаас де Йонг, Йохан Нийенхейс, Bert Meyer
    Director: Йохан Нийенхейс
    Cast: Виллеке ван Аммельрой, Йим Баккум, Рик Энгелкес, Ким Феенстра, Джаспер Готтлиб, Мариус Готтлиб, Симоне Клейнсма, Ян Коейман, Лоне ван Росендал, Дэвид Люсиер
    Long Deion: Футболист Кевин только что заключил выгодный контракт с мадридским Реалом. Он вряд ли понимает, что делать со свалившимся на него богатством, но его подруга Эльза знает, как Кевин должен тратить свои миллионы... Две 40-летних подруги Джеки и Ирма хотя и проводят отпуск вместе, но имеют разные представления об идеальном отдыхе: Джеки предпочитает тусоваться с молодыми горячими парнями, тогда как Ирме милее спокойный отдых на пляже с книгой... Братья Дилан и Бойд мечтают стать DJ-звездами мирового класса... Пути всех этих героев пересекаются на острове Ибица.
    Deion: Футболист Кевин только что заключил выгодный контракт с мадридским Реалом. Он вряд ли понимает, что делать со свалившимся на него богатством, но его подруга Эльза знает, как Кевин должен тратить свои миллионы...
    Release Date: 2013-01-28T08:00:00Z
    Artist: Йохан Нийенхейс
    Name: Любовь и секс на Ибице

    /////////////////////////////////////

    x264 info: frame I:1501 Avg QP:16.42 size: 75953 PSNR Mean Y:47.66 U:50.32 V:50.87 Avg:48.38 Global:47.93
    x264 info: frame P:41548 Avg QP:20.00 size: 23234 PSNR Mean Y:44.78 U:48.34 V:48.91 Avg:45.61 Global:45.07
    x264 info: frame B:118094 Avg QP:23.07 size: 6499 PSNR Mean Y:43.91 U:47.92 V:48.50 Avg:44.84 Global:44.25
    x264 info: consecutive B-frames: 3.7% 4.3% 14.0% 32.4% 18.8% 24.1% 2.8%
    x264 info: mb I I16..4: 14.9% 57.7% 27.4%
    x264 info: mb P I16..4: 3.2% 11.4% 3.0% P16..4: 35.1% 19.5% 11.7% 0.0% 0.0% skip:16.1%
    x264 info: mb B I16..4: 0.3% 1.3% 0.4% B16..8: 35.8% 7.7% 2.5% direct: 3.4% skip:48.5% L0:42.0% L1:47.0% BI:11.0%
    x264 info: 8x8 transform intra:63.5% inter:70.7%
    x264 info: coded y,uvDC,uvAC intra: 72.4% 78.9% 47.3% inter: 19.3% 18.9% 2.5%
    x264 info: i16 v,h,dc,p: 39% 15% 5% 41%
    x264 info: i8 v,h,dc,ddl,ddr,vr,hd,vl,hu: 12% 9% 5% 9% 13% 15% 13% 13% 12%
    x264 info: i4 v,h,dc,ddl,ddr,vr,hd,vl,hu: 12% 8% 3% 8% 14% 15% 14% 12% 13%
    x264 info: i8c dc,h,v,p: 35% 22% 22% 21%
    x264 info: Weighted P-Frames: Y:2.4% UV:1.3%
    x264 info: ref P L0: 53.1% 14.9% 12.8% 5.5% 3.8% 3.2% 2.7% 1.8% 1.8% 0.3% 0.0%
    x264 info: ref B L0: 82.9% 7.9% 3.9% 1.9% 1.4% 1.0% 0.7% 0.3%
    x264 info: ref B L1: 94.3% 5.7%
    x264 info: SSIM Mean Y:0.9859055 (18.510db)
    x264 info: PSNR Mean Y:44.167 U:48.052 V:48.628 Avg:45.073 Global:44.471 kb/s:2198.23

    /////////////////////////////////////

    General
    Complete name : /Users/imac/HandBrake/Verliefd.op.Ibiza.(SD).(pk).m4v
    Format : MPEG-4
    Codec ID : M4V
    File size : 1.97 GiB
    Duration : 1h 52mn
    Overall bit rate mode : Variable
    Overall bit rate : 2 522 Kbps
    Movie name : Любовь и секс на Ибице
    Performer : Йохан Нийенхейс
    Recorded date : UTC 2013-01-28 08:00:00
    Encoded date : UTC 2014-04-04 10:46:39
    Tagged date : UTC 2014-04-04 10:48:00
    Cover : Yes
    sonm : Любовь и секс на Ибице
    desc : Футболист Кевин только что заключил выгодный контракт с мадридским Реалом. Он вряд ли понимает, что делать со свалившимся на него богатством, но его подруга Эльза знает, как Кевин должен тратить свои миллионы...
    ldes : Футболист Кевин только что заключил выгодный контракт с мадридским Реалом. Он вряд ли понимает, что делать со свалившимся на него богатством, но его подруга Эльза знает, как Кевин должен тратить свои миллионы... Две 40-летних подруги Джеки и Ирма хотя и проводят отпуск вместе, но имеют разные представления об идеальном отдыхе: Джеки предпочитает тусоваться с молодыми горячими парнями, тогда как Ирме милее спокойный отдых на пляже с книгой... Братья Дилан и Бойд мечтают стать DJ-звездами мирового класса... Пути всех этих героев пересекаются на острове Ибица.
    stik : 9
    rtng : 0
    cnID : 680158
    xid : Apple:vendor_id:2013-680158

    Video #1
    ID : 1
    Format : AVC
    Format/Info : Advanced Video Codec
    Format profile : High@L4.0
    Format settings, CABAC : Yes
    Format settings, ReFrames : 9 frames
    Codec ID : avc1
    Codec ID/Info : Advanced Video Coding
    Duration : 1h 52mn
    Bit rate mode : Variable
    Bit rate : 2 200 Kbps
    Width : 1 024 pixels
    Height : 576 pixels
    Display aspect ratio : 16:9
    Frame rate mode : Variable
    Frame rate : 23.976 fps
    Minimum frame rate : 23.974 fps
    Maximum frame rate : 23.981 fps
    Color space : YUV
    Chroma subsampling : 4:2:0
    Bit depth : 8 bits
    Scan type : Progressive
    Bits/(Pixel*Frame) : 0.156
    Stream size : 1.72 GiB (87%)
    Writing library : x264 core 130 r2273 b3065e6
    Encoding settings : cabac=1 / ref=9 / deblock=1:0:0 / analyse=0x3:0x113 / me=umh / subme=9 / psy=1 / psy_rd=1.00:0.00 / mixed_ref=1 / me_range=32 / chroma_me=1 / trellis=1 / 8x8dct=1 / cqm=0 / deadzone=21,11 / fast_pskip=1 / chroma_qp_offset=-2 / threads=12 / lookahead_threads=1 / sliced_threads=0 / nr=0 / decimate=1 / interlaced=0 / bluray_compat=0 / constrained_intra=0 / bframes=6 / b_pyramid=2 / b_adapt=2 / b_bias=0 / direct=1 / weightb=1 / open_gop=0 / weightp=2 / keyint=240 / keyint_min=24 / scenecut=40 / intra_refresh=0 / rc_lookahead=40 / rc=2pass / mbtree=1 / bitrate=2200 / ratetol=1.0 / qcomp=0.60 / qpmin=0 / qpmax=69 / qpstep=4 / cplxblur=20.0 / qblur=0.5 / ip_ratio=1.40 / aq=1:1.00
    Language : German
    Encoded date : UTC 2014-04-04 10:46:39
    Tagged date : UTC 2014-04-04 10:47:49
    Color primaries : BT.709-5, BT.1361, IEC 61966-2-4, SMPTE RP177
    Transfer characteristics : BT.709-5, BT.1361
    Matrix coefficients : BT.709-5, BT.1361, IEC 61966-2-4 709, SMPTE RP177

    Video #2
    ID : 6
    Format : JPEG
    Codec ID : jpeg
    Duration : 1h 52mn
    Bit rate mode : Variable
    Bit rate : 795 bps
    Width : 640 pixels
    Height : 360 pixels
    Display aspect ratio : 16:9
    Frame rate mode : Variable
    Frame rate : 0.002 fps
    Minimum frame rate : 0.001 fps
    Maximum frame rate : 0.003 fps
    Color space : YUV
    Chroma subsampling : 4:2:0
    Bit depth : 8 bits
    Compression mode : Lossy
    Bits/(Pixel*Frame) : 1.725
    Stream size : 582 KiB (0%)
    Language : German
    Encoded date : UTC 2014-04-04 10:47:51
    Tagged date : UTC 2014-04-04 10:47:52

    Audio #1
    ID : 2
    Format : AAC
    Format/Info : Advanced Audio Codec
    Format profile : LC
    Codec ID : 40
    Duration : 1h 52mn
    Bit rate mode : Variable
    Bit rate : 158 Kbps
    Maximum bit rate : 260 Kbps
    Channel(s) : 2 channels
    Channel positions : Front: L R
    Sampling rate : 48.0 KHz
    Compression mode : Lossy
    Stream size : 127 MiB (6%)
    Language : Russian
    Encoded date : UTC 2014-04-04 10:46:39
    Tagged date : UTC 2014-04-04 10:46:47

    Audio #2
    ID : 3
    Format : AAC
    Format/Info : Advanced Audio Codec
    Format profile : LC
    Codec ID : 40
    Duration : 1h 52mn
    Bit rate mode : Variable
    Bit rate : 158 Kbps
    Maximum bit rate : 239 Kbps
    Channel(s) : 2 channels
    Channel positions : Front: L R
    Sampling rate : 48.0 KHz
    Compression mode : Lossy
    Stream size : 127 MiB (6%)
    Language : German
    Encoded date : UTC 2014-04-04 10:46:39
    Tagged date : UTC 2014-04-04 10:47:07

    Text #1
    ID : 4
    Format : Timed text
    Muxing mode : sbtl
    Codec ID : tx3g
    Duration : 1h 49mn
    Bit rate mode : Variable
    Bit rate : 67 bps
    Stream size : 53.6 KiB (0%)
    Language : German
    Encoded date : UTC 2014-04-04 10:46:39
    Tagged date : UTC 2014-04-04 10:46:39

    Text #2
    ID : 5
    Format : Apple text
    Codec ID : text
    Duration : 1h 52mn
    Bit rate mode : Variable
    Bit rate : 0 bps
    Stream size : 279 Bytes (0%)
    Language : German
    Encoded date : UTC 2014-04-04 10:47:49
    Tagged date : UTC 2014-04-04 10:47:49

    Menu
    00:00:00.000 : Chapter 1
    00:09:30.820 : Chapter 2
    00:19:04.518 : Chapter 3
    00:26:38.096 : Chapter 4
    00:39:26.822 : Chapter 5
    00:45:23.094 : Chapter 6
    00:54:53.830 : Chapter 7
    01:02:48.512 : Chapter 8
    01:11:37.415 : Chapter 9
    01:20:30.030 : Chapter 10
    01:29:37.118 : Chapter 11
    01:41:26.117 : Chapter 12
    Скриншоты для ознакомления



    Размер скачиваемого торрента: 1.97 GB (2118643747 Bytes)

    Любовь и секс на Ибице / Verliefd op Ibiza (2013) BDRip | iPad скачать через торрент бесплатно
    загрузка...
    Рейтинг →
     (голосов: 1, оценка 3/5, голосовать можно 1 раз )

    Другие торренты по теме:

  • Любовь и секс на Ибице / Verliefd op Ibiza (2013) HDRip-AVC от ImperiaFilm | P
  • Светлое будущее 3: Любовь и смерть в Сайгоне / A Better Tomorrow 3 (1989) HDRip от Scarabey | Р
  • Любовь и прочие неприятности / Любовь, любопытство, прозак и сомнения / Amor, curiosidad, prozak y dudas (2001) DVD5 | A скачать через торрент бесплатно
  • Девушки без имен / Любовь и Ненависть, Лулу и Аяно / Namae no nai onna-tachi / Love Loathing Lulu Ayano (2010) DVDRip-AVC | Sub
  • Сборник - Лирика, Шансон и Любовь и Зеленые глаза скачать через торрент бесплатно
  • Тайны мира с Анной Чапман. Разоблачение. Любовь и война (2013) SATRip
  • Любовь и кухня / Loves Kitchen (2011) HDRip | Лицензия
  • Любовь и честь / Love and Honor / Bushi no ichibun (2006) BDRip от Rulya74


    • Комментарии (0):

      Информация

      Информация

        Посетители, находящиеся в группе Гости, не могут оставлять комментарии в данной новости.

        ↓ Меню



        ↓ Опрос

        А Вы добавили сайт в закладки?
        Да
        Не


        Top 10 за месяц (Фильмы)