.
Авторизация | Регистрация
Хочешь лучшие торренты? Добавь свой email!
Добавить
» » Ромео Джульетта / Romeo Juliet (1996) BDRip от ivandubskoj | P2, D скачать через торрент бесплатно




    Ромео Джульетта / Romeo Juliet (1996) BDRip от ivandubskoj | P2, D скачать через торрент бесплатно

    Опубликовал: Админ | Дата: 27-02-2015, 11:10 | Просмотров: 226



    Детально о кино
    Русское название: Ромео Джульетта
    Русское название в мировом прокате: Romeo Juliet
    Создали в: 1996
    Категория жанра: Драма, мелодрама, триллер, экранизация
    Главный режиссёр: Баз Лурман
    Актеры: Леонардо ДиКаприо, Клер Дэйнс, Джон Легуизамо, Хэролд Перрино, Пит Постлетуэйт, Пол Сорвино, Брайан Деннехи, Пол Радд, Вонди Куртис-Холл, Мириам Маргулис, Джесси Брэдфорд, Зак Орт, Джейми Кеннеди, Дэш Майок, Винсент Лареска, Карлос Мартин Мэнзо Оталора, Кристина Пиклз, Дайан Венора, Педро Альтамирано, Джон Стерлини, Харриет Сэнсом Харрис, Майкл Корбетт, Эдвина Мур, Куиндон Тервер, Хорхе Абрахам, Фаусто Барона, Рикардо Барона, Каталина Ботелло, Марио Симарро, Фарнесио де Берналь, Дез’ри, Исмаэль Эгуйярте, Родриго Эскандон, Пако Морайта, Алекс Ньюман, Кори Ньюман, Люпита Очоа, Глория Силва, Кэролин Валеро, Маргарита

    Сюжет фильма:
    Великая пьеса Шекспира но на современный манер. Верона стала огромным мегаполисом, Мантеги и Капулетти из дворянских кланов превратились в мафиозные, битвы на мечах теперь заменены уличными перестрелками. Но Ромео и Джульетта так и остались подростками, а божественные строки Шекспира теперь звучат из уст уличных боевиков и наркоманов. Времена меняются, люди меняются, жизнь меняется, а истинная любовь — вечна.



    Снималось в: США
    Киностудия: 20th Century Fox Film Corporation, Bazmark Films
    Время просмотра: 02:00:10
    Перевод текста: Профессиональный двухголосый закадровый (Ren-TV), дублированный

    Файл
    Кодек для видео: XviD
    Качество фильма: BDRip (Исходник: Blu-ray Remux (1080p))
    Информация о видео: XviD, 720x304 (2.37:1), 23.976 кадр/с, 2141 Кбит/с
    Информация о звуке #1: Русский, Dolby AC3, 48000 Гц, 192 Кбит/с, 2 канала (Стерео) - DVO, Ren-TV
    Информация о звуке #2: Русский, Dolby AC3, 48000 Гц, 448 Кбит/с, 6 каналов (5.1) - DUB
    Информация о звуке #3: Английский, Dolby AC3, 48000 Гц, 448 Кбит/с, 6 каналов (5.1) - Оригинал
    Субтитры: Нет



    Дополнительная информация о релизе

    Исходник: Blu-ray Remux (1080p)

    Перевод текста: Профессиональный (двухголосый закадровый) от Ren-TV с VHS (Роли озвучивали: Игорь Тарадайкин и Наталья Гурзо)

    Оцифровка звука с VHS: ivandubskoj

    Обработка и чистка звука: Kino-profan и ivandubskoj

    Синхронизация и подгонка звука: JUSTKANT

    Релиз подготовил: ivandubskoj

    Здесь представлен - эксклюзивный русский перевод с телеканала REN-TV (оцифрован с VHS), отчасти похож на перевод от Премьер-видео, потому что тоже основан на книжном переводе Б. Пастернака, НО в отличии от него, с современными вкроплениями, модернизирован и адаптирован, - всё точно по сюжету фильма, а НЕ по книге, как это сделано в большинстве переводов.

    Многие переводы, которые по книге подошли бы к нормальной экранизации 60-х годов Франко Джеферелли, а НЕ к этой современной и вольной интерпретации.

    Например, у У. Шекспира Капулетти и Монтекки, а в фильме Капулет и Монтегю, а в большинстве переводов, читают как в книге...


    КАЧАЙТЕ СЭМПЛ И САМИ ВСЁ УЗНАЕТЕ!!!

    ЗВУК С VHS, так что имейте ввиду!
    MediaInfo

    Общее
    Полное имя : Romeo. .Juliet.1996.Triple.BDRip.avi
    Формат : AVI
    Формат/Информация : Audio Video Interleave
    Профиль формата : OpenDML
    Размер файла : 2,72 Гбайт
    Продолжительность : 2 ч. 0 м.
    Общий поток : 3244 Кбит/сек
    Название фильма : Ромео Джульетта / Romeo Juliet (1996) BDRip
    Жанр : Мелодрама, драма, боевик, криминал, экранизация
    Дата записи : 04.03.2014
    Программа кодирования : VirtualDubMod 1.5.10.3 (build 2550/release)
    Библиотека кодирования : VirtualDubMod build 2550/release

    Видео
    Идентификатор : 0
    Формат : MPEG-4 Visual
    Профиль формата : Advanced Simple@L5
    Параметр BVOP формата : 1
    Параметр QPel формата : Нет
    Параметр GMC формата : Без точки перехода
    Параметр матрицы формата : Выборочная
    Идентификатор кодека : XVID
    Идентификатор кодека/Подсказка : XviD
    Продолжительность : 2 ч. 0 м.
    Битрейт : 2141 Кбит/сек
    Ширина : 720 пикселей
    Высота : 304 пикселя
    Соотношение сторон : 2,35:1
    Частота кадров : 23,976 кадра/сек
    Цветовое пространство : YUV
    Субдискретизация насыщенности : 4:2:0
    Битовая глубина : 8 бит
    Тип развёртки : Прогрессивная
    Метод сжатия : С потерями
    Бит/(Пиксели*Кадры) : 0.408
    Размер потока : 1,80 Гбайт (66%)
    Библиотека кодирования : XviD 64

    Аудио #1
    Идентификатор : 1
    Формат : AC-3
    Формат/Информация : Audio Coding 3
    Расширение режима : CM (complete main)
    Параметр Endianness формата : Big
    Идентификатор кодека : 2000
    Продолжительность : 2 ч. 0 м.
    Вид битрейта : Постоянный
    Битрейт : 192 Кбит/сек
    Каналы : 2 канала
    Расположение каналов : Front: L R
    Частота : 48,0 КГц
    Битовая глубина : 16 бит
    Метод сжатия : С потерями
    Размер потока : 165 Мбайт (6%)
    Выравнивание : Разделение по промежуткам
    Продолжительность промежутка : 64 мс. (1,53 видеокадра)
    Время предзагрузки промежутка : 500 мс.
    Заголовок : Russian (DVO, Ren-TV)

    Аудио #2
    Идентификатор : 2
    Формат : AC-3
    Формат/Информация : Audio Coding 3
    Расширение режима : CM (complete main)
    Параметр Endianness формата : Big
    Идентификатор кодека : 2000
    Продолжительность : 2 ч. 0 м.
    Вид битрейта : Постоянный
    Битрейт : 448 Кбит/сек
    Каналы : 6 каналов
    Расположение каналов : Front: L C R, Side: L R, LFE
    Частота : 48,0 КГц
    Битовая глубина : 16 бит
    Метод сжатия : С потерями
    Размер потока : 385 Мбайт (14%)
    Выравнивание : Разделение по промежуткам
    Продолжительность промежутка : 64 мс. (1,53 видеокадра)
    Время предзагрузки промежутка : 500 мс.
    Заголовок : Russian (DUB)

    Аудио #3
    Идентификатор : 3
    Формат : AC-3
    Формат/Информация : Audio Coding 3
    Расширение режима : CM (complete main)
    Параметр Endianness формата : Big
    Идентификатор кодека : 2000
    Продолжительность : 2 ч. 0 м.
    Вид битрейта : Постоянный
    Битрейт : 448 Кбит/сек
    Каналы : 6 каналов
    Расположение каналов : Front: L C R, Side: L R, LFE
    Частота : 48,0 КГц
    Битовая глубина : 16 бит
    Метод сжатия : С потерями
    Размер потока : 385 Мбайт (14%)
    Выравнивание : Разделение по промежуткам
    Продолжительность промежутка : 64 мс. (1,53 видеокадра)
    Время предзагрузки промежутка : 500 мс.
    Заголовок : English (Original)
    Скриншоты для ознакомления


    Релиз подготовил: ivandubskoj
    Залил: ivandubskoj
    Размер скачиваемого торрента: 2.72 GB (2922209280 Bytes)

    Ромео Джульетта / Romeo Juliet (1996) BDRip от ivandubskoj | P2, D скачать через торрент бесплатно
    загрузка...
    Рейтинг →
     (голосов: 1, оценка 4/5, голосовать можно 1 раз )

    Другие торренты по теме:

  • Ромео и Юлия / Romeo i Julcia (1933) TVRip
  • Ромео должен умереть / Romeo Must Die (2000) DVD9 от NovaLan
  • Ромео и Джульетта / Romeo and Juliet (1968) BDRip от HQ-ViDEO
  • Ромео и Джульетта / Romeo and Juliet (1968) BDRip от HQCLUB
  • Ромео и Джульетта / Romeo and Juliet: A Love Song (2013) DVD5 от Youtracker | Sub | сжатый
  • Ромео и Джульетта / Romeo and Juliet: A Love Song (2013) DVDRip-AVC от Youtracker | Sub | лицензия
  • Ромео и Джульетта / Romeo and Juliet: A Love Song (2013) DVD9 R5 от Youtracker | Sub | лицензия
  • Ромео и Джульетта / Romeo and Juliet: A Love Song (2013) DVDRip от Youtracker | Sub | лицензия


    • Комментарии (0):

      Информация

      Информация

        Посетители, находящиеся в группе Гости, не могут оставлять комментарии в данной новости.

        ↓ Меню



        ↓ Опрос

        А Вы добавили сайт в закладки?
        Да
        Не


        Top 10 за месяц (Фильмы)