.
Авторизация | Регистрация
Хочешь лучшие торренты? Добавь свой email!
Добавить
» » Тринадцатый этаж / The Thirteenth Floor (1999) BDRip-AVC | iPad | D скачать через торрент бесплатно




    Тринадцатый этаж / The Thirteenth Floor (1999) BDRip-AVC | iPad | D скачать через торрент бесплатно

    Опубликовал: Админ | Дата: 27-02-2015, 11:10 | Просмотров: 187



    Тринадцатый этаж / The Thirteenth Floor (1999) BDRip-AVC | iPad | D

    Русское название: Тринадцатый этаж
    Русское название в мировом прокате: The Thirteenth Floor
    Создали в: 1999
    Категория жанра: фантастика, триллер, детектив
    Главный режиссер: Йозеф Руснак
    Актеры: Крэйг Бирко, Гретхен Мол, Армин Мюллер-Шталь, Винсент Д’Онофрио, Деннис Хейсбёрт, Стивен Шуб, Джереми Робертс, Риф Хаттон, Леон Риппи, Джанет МакЛахлан

    Сюжет фильма:
    На тринадцатом этаже компьютерной корпорации была разработана совершенная модель виртуальной реальности, создание которой повлекло за собой цепь таинственных убийств. Разгадать загадку можно, лишь погрузившись в иное измерение, где может быть ответ на многие вопросы, а может быть - страшная нереальность...



    Снималось в: США, Германия
    Киностудия: Columbia/Sony
    Время просмотра: 01:40:30
    Перевод текста: Русский дублированный

    Файл
    Кодек для видео: H.264
    Качество фильма: BDRip-AVC 576p
    Информация о видео: 1024x428 (2.40:1) at 23.976 fps, AVC at 2600 kbps
    Информация о звуке:
    1: АAС 2.0 149 kbps - Русский дублированный
    2: АAС 2.0 149 kbps - Английский
    Субтитры: отсутствуют

    MI

    General
    Complete name : C:CREATE264mod1outThe Thirteenth Floor.1999.BDRip.576p.D.m4v
    Format : MPEG-4
    Codec ID : M4V
    File size : 2.05 GiB
    Duration : 1h 40mn
    Overall bit rate mode : Variable
    Overall bit rate : 2 920 Kbps
    Movie name : Тринадцатый этаж
    Performer : Josef Rusnak
    Genre : Sci-Fi Fantasy
    ContentType : Short Film
    Deion : На тринадцатом этаже компьютерной корпорации была разработана совершенная модель виртуальной реальности, создание которой повлекло за собой цепь таинственных убийств. Разгадать загадку можно, лишь погрузившись в иное измерение..
    Recorded date : UTC 1999-10-05 07:00:00
    Encoded date : UTC 2014-04-03 17:16:37
    Tagged date : UTC 2014-04-03 17:44:02
    Copyright : © 1999 Columbia Pictures Industries, Inc. All Rights Reserved.
    Cover : Yes
    Comment : Question reality. You can go there even though it doesn;t exist
    ContentRating : mpaa|R|400|

    Title/Sort : The Thirteenth Floor
    LongDeion : На тринадцатом этаже компьютерной корпорации была разработана совершенная модель виртуальной реальности, создание которой повлекло за собой цепь таинственных убийств. Разгадать загадку можно, лишь погрузившись в иное измерение, где может быть ответ на многие вопросы, а может быть - страшная нереальность...
    AppleStoreCatalogID : 284571749
    Vendor : Apple:vendor_id:1999-1086

    Video
    ID : 1
    Format : AVC
    Format/Info : Advanced Video Codec
    Format profile : High@L4.1
    Format settings, CABAC : Yes
    Format settings, ReFrames : 9 frames
    Codec ID : avc1
    Codec ID/Info : Advanced Video Coding
    Duration : 1h 40mn
    Bit rate : 2 609 Kbps
    Maximum bit rate : 10.5 Mbps
    Width : 1 024 pixels
    Height : 428 pixels
    Display aspect ratio : 2.40:1
    Frame rate mode : Constant
    Frame rate : 23.976 fps
    Color space : YUV
    Chroma subsampling : 4:2:0
    Bit depth : 8 bits
    Scan type : Progressive
    Bits/(Pixel*Frame) : 0.248
    Stream size : 1.83 GiB (89%)
    Title : The Thirteenth Floor _1999_
    Language : English
    Encoded date : UTC 2014-04-03 17:16:37
    Tagged date : UTC 2014-04-03 17:17:02
    Matrix coefficients : BT.709

    Audio #1
    ID : 2
    Format : AAC
    Format/Info : Advanced Audio Codec
    Format profile : LC
    Codec ID : 40
    Duration : 1h 40mn
    Bit rate mode : Variable
    Bit rate : 149 Kbps
    Maximum bit rate : 181 Kbps
    Channel(s) : 2 channels
    Channel positions : Front: L R
    Sampling rate : 48.0 KHz
    Compression mode : Lossy
    Stream size : 107 MiB (5%)
    Title : Dub
    Language : Russian
    Encoded date : UTC 2014-04-03 17:08:32
    Tagged date : UTC 2014-04-03 17:17:02

    Audio #2
    ID : 3
    Format : AAC
    Format/Info : Advanced Audio Codec
    Format profile : LC
    Codec ID : 40
    Duration : 1h 40mn
    Bit rate mode : Variable
    Bit rate : 149 Kbps
    Maximum bit rate : 187 Kbps
    Channel(s) : 2 channels
    Channel positions : Front: L R
    Sampling rate : 48.0 KHz
    Compression mode : Lossy
    Stream size : 107 MiB (5%)
    Title : Original
    Language : English
    Encoded date : UTC 2014-04-03 17:14:03
    Tagged date : UTC 2014-04-03 17:17:02

    Menu
    ID : 4
    Codec ID : text
    Duration : 1h 40mn
    Encoded date : UTC 2014-04-03 17:17:31
    Tagged date : UTC 2014-04-03 17:17:31
    Bit rate mode : CBR

    iTunes tags


    Sort Name: The Thirteenth Floor
    XID: Apple:vendor_id:1999-1086
    Content ID: 284571749
    Copyright: © 1999 Columbia Pictures Industries, Inc. All Rights Reserved.
    ScreenWriters: Йозеф Руснак, Равель Сентено-Родригес, Дэниэл Ф. Галуйе
    Producers: Роланд Эммерих, Уте Эммерих, Марко Вебер
    Director: Йозеф Руснак
    Cast: Крэйг Бирко, Гретхен Мол, Армин Мюллер-Шталь, Винсент Д’Онофрио, Деннис Хейсбёрт, Стивен Шуб, Джереми Робертс, Риф Хаттон, Леон Риппи, Джанет МакЛахлан // Craig Bierko (Douglas Hall/John Ferguson/David), Armin Mueller-Stahl (Hannon Fuller/Grierson), Gretchen Mol (Jane Fuller/Natasha Molinaro), Vincent D;Onofrio (Jason Whitney/Jerry Ashton), Dennis Haysbert (Detective Larry McBain), Steven Schub (Detective Zev Bernstein), Jeremy Roberts (Tom Jones), Rif Hutton (Joe), Leon Rippy (Jane;s Lawyer), Janet MacLachlan (Ellen), Brad William Henke (Cop #1), Burt Bulos (Bellhop), Venessia Valentino (Concierge), Tia Texada (Natasha;s Roommate)
    Rating: R
    Long Deion: На тринадцатом этаже компьютерной корпорации была разработана совершенная модель виртуальной реальности, создание которой повлекло за собой цепь таинственных убийств. Разгадать загадку можно, лишь погрузившись в иное измерение, где может быть ответ на многие вопросы, а может быть - страшная нереальность...
    Deion: На тринадцатом этаже компьютерной корпорации была разработана совершенная модель виртуальной реальности, создание которой повлекло за собой цепь таинственных убийств. Разгадать загадку можно, лишь погрузившись в иное измерение..
    Release Date: 1999-10-05T07:00:00Z
    Genre: Sci-Fi Fantasy
    Artist: Josef Rusnak
    Name: Тринадцатый этаж
    Comments: Question reality. You can go there even though it doesn;t exist

    x264

    x264 info: frame I:1056 Avg QP:15.62 size: 71750
    x264 info: frame P:30183 Avg QP:17.83 size: 28584
    x264 info: frame B:113337 Avg QP:19.59 size: 9069
    x264 info: consecutive B-frames: 2.0% 1.7% 6.6% 13.1% 23.5% 46.1% 4.1% 1.3% 0.5% 0.3% 0.2% 0.1% 0.4% 0.0%
    x264 info: mb I I16..4: 18.8% 53.7% 27.6%
    x264 info: mb P I16..4: 1.3% 10.5% 2.0% P16..4: 27.5% 39.5% 15.5% 0.0% 0.0% skip: 3.7%
    x264 info: mb B I16..4: 0.1% 0.8% 0.1% B16..8: 35.4% 25.0% 4.4% direct: 6.8% skip:27.4% L0:40.9% L1:43.4% BI:15.7%
    x264 info: 8x8 transform intra:73.3% inter:38.1%
    x264 info: coded y,uvDC,uvAC intra: 95.5% 86.3% 72.5% inter: 29.8% 20.0% 11.6%
    x264 info: i16 v,h,dc,p: 12% 6% 16% 66%
    x264 info: i8 v,h,dc,ddl,ddr,vr,hd,vl,hu: 10% 9% 10% 9% 13% 12% 12% 12% 13%
    x264 info: i4 v,h,dc,ddl,ddr,vr,hd,vl,hu: 13% 7% 5% 10% 14% 14% 13% 11% 12%
    x264 info: i8c dc,h,v,p: 45% 23% 18% 15%
    x264 info: Weighted P-Frames: Y:7.1% UV:3.3%
    x264 info: ref P L0: 51.8% 8.3% 16.2% 7.7% 5.3% 4.0% 3.1% 1.8% 1.6% 0.2% 0.0%
    x264 info: ref B L0: 82.4% 7.5% 4.1% 2.1% 1.5% 1.1% 0.9% 0.4%
    x264 info: ref B L1: 95.2% 4.8%
    x264 info: kb/s:2608.82




    Залил: gekka
    Размер скачиваемого торрента: 2.05 GB (2200860185 Bytes)

    Тринадцатый этаж / The Thirteenth Floor (1999) BDRip-AVC | iPad | D скачать через торрент бесплатно
    загрузка...
    Рейтинг →
     (голосов: 1, оценка 4/5, голосовать можно 1 раз )

    Другие торренты по теме:

  • Тринадцатый этаж / The Thirteenth Floor (1999) HDRip-AVC | P
  • Тринадцатый этаж / The Thirteenth Floor (1999) BDRip 1080p
  • Тринадцатый этаж / The Thirteenth Floor (1999) BDRip-AVC скачать через торрент бесплатно
  • Тринадцатый этаж / The Thirteenth Floor (1999) BDRip 720p от New-Team скачать через торрент бесплатно
  • Тринадцатый этаж / The Thirteenth Floor (1999) BDRip 720p от HELLYWOOD | D, P, P2, A
  • Тринадцатый этаж / The Thirteenth Floor (1999) BDRemux 1080p от ivandubskoj | D, P, P2, A
  • Тринадцатый этаж / The Thirteenth Floor (1999) BDRip 720p HEVC | D


    • Комментарии (0):

      Информация

      Информация

        Посетители, находящиеся в группе Гости, не могут оставлять комментарии в данной новости.

        ↓ Меню



        ↓ Опрос

        А Вы добавили сайт в закладки?
        Да
        Не


        Top 10 за месяц (Фильмы)