.
Авторизация | Регистрация
Хочешь лучшие торренты? Добавь свой email!
Добавить
» » Голубая сталь / Blue Steel (1989) BDRip от New-Team | Р2 скачать через торрент бесплатно




    Голубая сталь / Blue Steel (1989) BDRip от New-Team | Р2 скачать через торрент бесплатно

    Опубликовал: Админ | Дата: 27-02-2015, 11:10 | Просмотров: 190


    Снималось в: США
    Создали в: Lightning Pictures, Mack-Taylor Productions, Precision Films
    Категория жанра: триллер, драма, криминал
    Создали в: 1989
    Время просмотра: 01:41:53

    Перевод текста: Профессиональный (двухголосый закадровый)
    Оригинальная аудиодорожка: нет
    Субтитры подготовлены: нет

    Главный режиссер: Кэтрин Бигелоу / Kathryn Bigelow

    Актеры:
    Джейми Ли Кёртис, Рон Сильвер, Клэнси Браун, Элизабет Пенья, Луиз Флетчер, Филип Боско, Кевин Данн, Ричард Дженкинс, Маркус Флэннаган, Мэри Мара, Скипп Линч, Майк Ходж, Майк Старр, Крис Уокер, Том Сайзмор...

    Сюжет:
    Офицер полиции Миган только что закончила специальную полицейскую школу. И в ходе первого же дежурства револьвер грабителя, застреленного ею по всем правилам, случайно попадает в руки финансового брокера Юджина. В связи с исчезновением важнейшей улики возбуждается расследование проступка Миган, а в городе начинается серия убийств, связанных с ее именем…




    Исходник: Blu-ray 1080p
    Тип релиза: BDRip
    Контейнер: AVI

    Информация о видео: 688x368 (1,85:1), 23,976 fps, XviD ~ 885 kbps avg, 0.146 bit/pixel
    Информация о звуке: 48 kHz, MP3 2.0, 128 kbps

    Раздача от:
    MediaInfo

    Общее
    Полное имя : Blue.Steel.1989.BDRip-745_New-team_by_AVP_Studio.avi
    Формат : AVI
    Формат/Информация : Audio Video Interleave
    Размер файла : 745 Мбайт
    Продолжительность : 1 ч. 41 м.
    Общий поток : 1022 Кбит/сек
    Программа кодирования : VirtualDubModRus 1.5.10.2 (build 2542/release)
    Библиотека кодирования : VirtualDubMod build 2542/release

    Видео
    Идентификатор : 0
    Формат : MPEG-4 Visual
    Профиль формата : Advanced Simple@L5
    Параметр BVOP формата : 1
    Параметр QPel формата : Нет
    Параметр GMC формата : Без точки перехода
    Параметр матрицы формата : Выборочная
    Идентификатор кодека : XVID
    Идентификатор кодека/Подсказка : XviD
    Продолжительность : 1 ч. 41 м.
    Битрейт : 885 Кбит/сек
    Ширина : 688 пикселей
    Высота : 368 пикселей
    Соотношение сторон : 1,85:1
    Частота кадров : 23,976 кадра/сек
    Цветовое пространство : YUV
    Субдискретизация насыщенности : 4:2:0
    Битовая глубина : 8 бит
    Тип развёртки : Прогрессивная
    Метод сжатия : С потерями
    Бит/(Пиксели*Кадры) : 0.146
    Размер потока : 645 Мбайт (87%)
    Библиотека кодирования : XviD 73

    Аудио
    Идентификатор : 1
    Формат : MPEG Audio
    Версия формата : Version 1
    Профиль формата : Layer 3
    Идентификатор кодека : 55
    Идентификатор кодека/Подсказка : MP3
    Продолжительность : 1 ч. 41 м.
    Вид битрейта : Постоянный
    Битрейт : 128 Кбит/сек
    Каналы : 2 канала
    Частота : 48,0 КГц
    Метод сжатия : С потерями
    Размер потока : 93,3 Мбайт (13%)
    Выравнивание : Соединение по промежуткам
    Продолжительность промежутка : 42 мс. (1,00 видеокадр)
    Время предзагрузки промежутка : 504 мс.
    Библиотека кодирования : LAME3.99r
    Залил: AVPStudio
    Размер скачиваемого торрента: 744.88 MB (781060096 Bytes)


    Голубая сталь / Blue Steel (1989) BDRip от New-Team | Р2 скачать через торрент бесплатно
    загрузка...
    Рейтинг →
     (голосов: 1, оценка 3/5, голосовать можно 1 раз )

    Другие торренты по теме:

  • Голубая сталь / Вороненая сталь / Blue Steel (1989) BDRip от HQCLUB
  • Голубая сталь / Вороненая сталь / Blue Steel (1989) BDRip 1080p от NNNB | P2, A скачать через торрент бесплатно
  • Голубая сталь / Blue Steel (1989) HDRip
  • Голубая сталь / Blue Steel (1989) BDRip от New-Team | Р2, А скачать через торрент бесплатно
  • Голубая сталь / Blue Steel (1989) BDRip-AVC от New-Team | Р2, А
  • Голубая сталь / Blue Steel (1989) BDRip-AVC | P, Р2, А
  • Голубая сталь / Blue Steel (1989) BDRip 720p от Leonardo | P, A


    • Комментарии (0):

      Информация

      Информация

        Посетители, находящиеся в группе Гости, не могут оставлять комментарии в данной новости.

        ↓ Меню



        ↓ Опрос

        А Вы добавили сайт в закладки?
        Да
        Не


        Top 10 за месяц (Фильмы)