.
Авторизация | Регистрация
Хочешь лучшие торренты? Добавь свой email!
Добавить
» » Король Нью-Йорка / King of New York (1990) BDRip 1080p by msltel | P, P2, A скачать через торрент бесплатно




    Король Нью-Йорка / King of New York (1990) BDRip 1080p by msltel | P, P2, A скачать через торрент бесплатно

    Опубликовал: Админ | Дата: 27-02-2015, 11:10 | Просмотров: 239



    Русское название: Король Нью-Йорка
    Русское название в мировом прокате: King of New York
    Создали в: 1990
    Категория жанра: Триллер, криминал
    Снималось в: США, Великобритания, Италия, Caminito, The Rank Organisation, Reteitalia
    Главный режиссер: Абель Феррара
    Актеры: Кристофер Уокен, Дэвид Карузо, Стив Бушеми, Лоуренс Фишборн, Виктор Арго, Уэсли Снайпс, Джанет Джулиан, Джои Чин, Джанкарло Эспозито, Пол Кэлдерон, Тереза Рэндл, Леонард Л. Томас, Роджер Гуэнвёр Смит, Кэрри Нюгрен, Эрнест Абуба, Фрэнк Адонис, Ванесса Энджел, Дэвид Батисте, Лия Чанг, Эрика Гимпел, Фрэнк Джио, Джек Гуд мл., Майкл Гесс, Фредди Ховард, Нэнси Хантер, Роберт ЛаСардо, Гари Лэндон Миллс

    Сюжет фильма: Выйдя из тюрьмы, гангстер Фрэнк Уайт объявляет, что берёт под свой контроль всю торговлю наркотиками в Нью-Йорке и уничтожит всех, кто встанет на его пути. Нью-Йорк становится ареной кровавых разборок за рынок сбыта наркотиков стоимостью более чем в миллиард долларов. Фрэнк и его банда, состоящая в основном из чёрных, методично уничтожает боссов колумбийских, итальянских и китайских группировок. В своей штаб-квартире в роскошных апартаментах отеля Плаза под защитой двух прелестных телохранительниц Фрэнк провозглашает себя королём Нью-Йорка. Полиция, неспособная справиться с Фрэнком, объявляет ему настоящую войну…

    Качество фильма: BDRip 1080p
    Размер скачиваемого торрента: 11.27 ГБ
    Время просмотра: 01:43:11

    Информация о видео: MPEG-4 AVC, 12.5 Mбит/с, 1920x1080
    Информация о звуке 1: русский, 48 kHz, AC3, 6 ch, 448 kbps avg, Профессиональный многоголосый
    Информация о звуке 2: русский, 48 kHz, AC3, 6 ch, 448 kbps avg, Профессиональный двухголосый, Пётр Гланц и Инна Королёва
    Информация о звуке 3: русский, 48 kHz, AC3, 2 ch, 192 kbps avg, Авторский, Алексей Михалёв

    Внешние файлы
    Информация о звуке: русский, 48 kHz, AC3, 2 ch, 192 kbps avg, Профессиональный многоголосый, Екатеринбург арт
    Информация о звуке: русский, 48 kHz, AC3, 6 ch, 384 kbps avg, Профессиональный многоголосый, Cinema Prestige
    Информация о звуке: русский, 48 kHz, AC3, 6 ch, 384 kbps avg, Авторский, Юрий Живов
    Информация о звуке: русский, 48 kHz, AC3, 2 ch, 192 kbps avg, Авторский, Павел Прямостанов
    Информация о звуке: английский, 48 kHz, AC3, 6 ch, 640 kbps avg, Оригинал
    Субтитры: русские
    Субтитры: английские

    Имеются неименованные главы/чаптеры.

    Исходник: parravoz (Кинозал)

    Сравнение с исходником



    MediaInfo Лог х264
    Общее
    Полное имя : D:VideoKorol Nyu-Jorka.1990.x264.BDRip.1080pKorol Nyu-Jorka.1990.AVO.rus.П.Прямостанов.ac3
    Формат : AC-3
    Формат/Информация : Audio Coding 3
    Размер файла : 142 Мбайт
    Продолжительность : 1 ч. 43 м.
    Режим общего битрейта : Постоянный
    Общий поток : 192 Кбит/сек

    Аудио
    Формат : AC-3
    Формат/Информация : Audio Coding 3
    Расширение режима : CM (complete main)
    Параметр Endianness формата : Big
    Продолжительность : 1 ч. 43 м.
    Вид битрейта : Постоянный
    Битрейт : 192 Кбит/сек
    Каналы : 2 канала
    Расположение каналов : Front: L R
    Частота : 48,0 КГц
    Битовая глубина : 16 бит
    Метод сжатия : С потерями
    Размер потока : 142 Мбайт (100%)

    Общее
    Полное имя : D:VideoKorol Nyu-Jorka.1990.x264.BDRip.1080pKorol Nyu-Jorka.1990.AVO.rus.Ю.Живов.ac3
    Формат : AC-3
    Формат/Информация : Audio Coding 3
    Размер файла : 283 Мбайт
    Продолжительность : 1 ч. 43 м.
    Режим общего битрейта : Постоянный
    Общий поток : 384 Кбит/сек

    Аудио
    Формат : AC-3
    Формат/Информация : Audio Coding 3
    Расширение режима : CM (complete main)
    Параметр Endianness формата : Big
    Продолжительность : 1 ч. 43 м.
    Вид битрейта : Постоянный
    Битрейт : 384 Кбит/сек
    Каналы : 6 каналов
    Расположение каналов : Front: L C R, Side: L R, LFE
    Частота : 48,0 КГц
    Битовая глубина : 16 бит
    Метод сжатия : С потерями
    Размер потока : 283 Мбайт (100%)

    Общее
    Полное имя : D:VideoKorol Nyu-Jorka.1990.x264.BDRip.1080pKorol Nyu-Jorka.1990.eng.srt
    Формат : SubRip
    Размер файла : 65,9 Кбайт

    Текст
    Формат : SubRip
    Метод сжатия : Без потерь

    Общее
    Полное имя : D:VideoKorol Nyu-Jorka.1990.x264.BDRip.1080pKorol Nyu-Jorka.1990.MVO.rus.Cinema Prestige.ac3
    Формат : AC-3
    Формат/Информация : Audio Coding 3
    Размер файла : 283 Мбайт
    Продолжительность : 1 ч. 43 м.
    Режим общего битрейта : Постоянный
    Общий поток : 384 Кбит/сек

    Аудио
    Формат : AC-3
    Формат/Информация : Audio Coding 3
    Расширение режима : CM (complete main)
    Параметр Endianness формата : Big
    Продолжительность : 1 ч. 43 м.
    Вид битрейта : Постоянный
    Битрейт : 384 Кбит/сек
    Каналы : 6 каналов
    Расположение каналов : Front: L C R, Side: L R, LFE
    Частота : 48,0 КГц
    Битовая глубина : 16 бит
    Метод сжатия : С потерями
    Размер потока : 283 Мбайт (100%)

    Общее
    Полное имя : D:VideoKorol Nyu-Jorka.1990.x264.BDRip.1080pKorol Nyu-Jorka.1990.MVO.rus.Екатеринбург арт.ac3
    Формат : AC-3
    Формат/Информация : Audio Coding 3
    Размер файла : 142 Мбайт
    Продолжительность : 1 ч. 43 м.
    Режим общего битрейта : Постоянный
    Общий поток : 192 Кбит/сек

    Аудио
    Формат : AC-3
    Формат/Информация : Audio Coding 3
    Расширение режима : CM (complete main)
    Параметр Endianness формата : Big
    Продолжительность : 1 ч. 43 м.
    Вид битрейта : Постоянный
    Битрейт : 192 Кбит/сек
    Каналы : 2 канала
    Расположение каналов : Front: L R
    Частота : 48,0 КГц
    Битовая глубина : 16 бит
    Метод сжатия : С потерями
    Размер потока : 142 Мбайт (100%)

    Общее
    Полное имя : D:VideoKorol Nyu-Jorka.1990.x264.BDRip.1080pKorol Nyu-Jorka.1990.Original.eng.ac3
    Формат : AC-3
    Формат/Информация : Audio Coding 3
    Размер файла : 472 Мбайт
    Продолжительность : 1 ч. 43 м.
    Режим общего битрейта : Постоянный
    Общий поток : 640 Кбит/сек

    Аудио
    Формат : AC-3
    Формат/Информация : Audio Coding 3
    Расширение режима : CM (complete main)
    Параметр Endianness формата : Big
    Продолжительность : 1 ч. 43 м.
    Вид битрейта : Постоянный
    Битрейт : 640 Кбит/сек
    Каналы : 6 каналов
    Расположение каналов : Front: L C R, Side: L R, LFE
    Частота : 48,0 КГц
    Битовая глубина : 16 бит
    Метод сжатия : С потерями
    Размер потока : 472 Мбайт (100%)

    Общее
    Полное имя : D:VideoKorol Nyu-Jorka.1990.x264.BDRip.1080pKorol Nyu-Jorka.1990.rus.srt
    Формат : SubRip
    Размер файла : 71,5 Кбайт

    Текст
    Формат : SubRip
    Метод сжатия : Без потерь

    Общее
    Уникальный идентификатор : 224819014460979893632705982675775156644 (0xA9229134232955DABEB8EE3CB52871A4)
    Полное имя : D:VideoKorol Nyu-Jorka.1990.x264.BDRip.1080pKorol Nyu-Jorka.1990.x264.BDRip.1080p.mkv
    Формат : Matroska
    Версия формата : Version 4 / Version 2
    Размер файла : 9,97 Гбайт
    Продолжительность : 1 ч. 43 м.
    Общий поток : 13,8 Мбит/сек
    Название фильма : =Kinozal.tv= by =parravoz=
    Дата кодирования : UTC 2014-04-10 08:56:18
    Программа кодирования : mkvmerge v6.8.0 (;Theme for Great Cities;) 64bit built on Mar 2 2014 21:34:26
    Библиотека кодирования : libebml v1.3.0 libmatroska v1.4.1

    Видео
    Идентификатор : 1
    Формат : AVC
    Формат/Информация : Advanced Video Codec
    Профиль формата : High@L4.1
    Параметр CABAC формата : Да
    Параметр ReFrames формата : 4 кадра
    Идентификатор кодека : V_MPEG4/ISO/AVC
    Продолжительность : 1 ч. 43 м.
    Битрейт : 12,5 Мбит/сек
    Ширина : 1920 пикселей
    Высота : 1080 пикселей
    Соотношение сторон : 16:9
    Режим частоты кадров : Постоянный
    Частота кадров : 23,976 кадра/сек
    Цветовое пространство : YUV
    Субдискретизация насыщенности : 4:2:0
    Битовая глубина : 8 бит
    Тип развёртки : Прогрессивная
    Бит/(Пиксели*Кадры) : 0.251
    Размер потока : 8,99 Гбайт (90%)
    Заголовок : BDRip -- STarankov
    Библиотека кодирования : x264 core 138 r2358 9e941d1
    Залил: msltel
    Размер скачиваемого торрента: 11.27 GB (12097219637 Bytes)


    Король Нью-Йорка / King of New York (1990) BDRip 1080p by msltel | P, P2, A скачать через торрент бесплатно
    загрузка...
    Рейтинг →
     (голосов: 1, оценка 3/5, голосовать можно 1 раз )

    Другие торренты по теме:

  • Король Нью-Йорка / King of New York (1990) BDRip-AVC от MediaClub | P, P2, A скачать через торрент бесплатно


    • Комментарии (0):

      Информация

      Информация

        Посетители, находящиеся в группе Гости, не могут оставлять комментарии в данной новости.

        ↓ Меню



        ↓ Опрос

        А Вы добавили сайт в закладки?
        Да
        Не


        Top 10 за месяц (Фильмы)