.
Авторизация | Регистрация
Хочешь лучшие торренты? Добавь свой email!
Добавить
» » Паганини: Скрипач Дьявола / The Devils Violinist (2013) BDRip 1080p от CINEMANIA | D скачать через торрент бесплатно


    Паганини: Скрипач Дьявола / The Devils Violinist (2013) BDRip 1080p от CINEMANIA | D скачать через торрент бесплатно

    Опубликовал: Админ | Дата: 27-02-2015, 11:10 | Просмотров: 229



    Детально о кино
    Русское название: Паганини: Скрипач Дьявола
    Русское название в мировом прокате: The Devil;s Violinist
    Создали в: 2013
    Категория жанра: драма, мелодрама, музыка, биография
    Главный режиссер: Бернард Роуз
    Актеры: Дэвид Гэрретт, Джаред Харрис, Джоэли Ричардсон, Кристиан МакКэй, Вероника Феррес, Хельмут Бергер, Оливия д’Або, Андреа Дэк

    Сюжет фильма:
    Редкий прирожденный гений, посвятивший всю жизнь искусству, избегал в былые времена обвинений в том, будто бы он заключил договор с самим властителем Преисподней. Не избежал таких подозрений и Паганини – известнейший скрипач, чье имя стало нарицательным еще при жизни. Его, наслаждающегося известностью и порочными удовольствиями, которые предлагала жизнь, считали скрипачом Дьявола, продавшим ему душу в обмен на свой уникальный талант.

    Но что, если слухи, пущенные недовольными поведением Паганини людьми, были не такими уж и безосновательными? Скрипач, обладающий огромной страстью к музыке, и правда привлек к себе внимание Дьявола, мечтающего овладеть его бессмертной душой и готового исполнять все его капризы. И когда в жизни Паганини, потерявшего внутренний покой и больше не находящего утешения в обожании толпы, появилась новая страсть – любовь к прекрасной Шарлотте, обладающей волшебным голосом, – Дьявол решил, что пора напомнить о своих правах.



    Снималось в: Германия, Италия
    Время просмотра: 02:02:38
    Тип перевода: Дублированное Лицензия

    Файл
    Тип видео: MKV
    Качество фильма: BDRip 1080p PHD
    Информация о видео: 9382 kb/s, 1920x816
    Информация о звуке: Russian: AC3, 384 kb/s (6 ch) / English: DTS, 1510 kb/s (6 ch)
    Дополнительно: Сохранены оригинальные чаптеры как на Blu-Ray
    Размер скачиваемого торрента: 9.86 Gb
    Скачать: Сэмпл

    Релиз группы:




    NFO
    Общее
    The.Devils.Violinist.2013.Blu.Ray.1080p.CINEMANIA.mkv
    Формат : Matroska
    Версия формата : Version 4 / Version 2
    Размер файла : 9,86 Гбайт
    Продолжительность : 2 ч. 2 м.
    Общий поток : 11,5 Мбит/сек
    Название фильма : Release Group CINEMANIA
    Дата кодирования : UTC 2014-04-09 20:00:57
    Программа кодирования : mkvmerge v6.8.0 (;Theme for Great Cities;) 64bit built on Mar 2 2014 21:34:26
    Библиотека кодирования : libebml v1.3.0 libmatroska v1.4.1

    Видео
    Идентификатор : 1
    Формат : AVC
    Формат/Информация : Advanced Video Codec
    Профиль формата : High@L4.1
    Параметр CABAC формата : Да
    Параметр ReFrames формата : 5 кадров
    Идентификатор кодека : V_MPEG4/ISO/AVC
    Продолжительность : 2 ч. 2 м.
    Битрейт : 9382 Кбит/сек
    Ширина : 1920 пикселей
    Высота : 816 пикселей
    Соотношение сторон : 2,35:1
    Режим частоты кадров : Постоянный
    Частота кадров : 24,000 кадра/сек
    Цветовое пространство : YUV
    Субдискретизация насыщенности : 4:2:0
    Битовая глубина : 8 бит
    Тип развёртки : Прогрессивная
    Бит/(Пиксели*Кадры) : 0.250
    Размер потока : 8,04 Гбайт (82%)
    Заголовок : Release Group CINEMANIA
    Язык : English
    Default : Да
    Forced : Нет

    Аудио #1
    Идентификатор : 2
    Формат : AC-3
    Формат/Информация : Audio Coding 3
    Расширение режима : CM (complete main)
    Параметр Endianness формата : Big
    Идентификатор кодека : A_AC3
    Продолжительность : 2 ч. 2 м.
    Вид битрейта : Постоянный
    Битрейт : 384 Кбит/сек
    Каналы : 6 каналов
    Расположение каналов : Front: L C R, Side: L R, LFE
    Частота : 48,0 КГц
    Битовая глубина : 16 бит
    Метод сжатия : С потерями
    Размер потока : 337 Мбайт (3%)
    Заголовок : Дубляж (Лицензия)
    Язык : Russian
    Default : Да
    Forced : Да

    Аудио #2
    Идентификатор : 3
    Формат : DTS
    Формат/Информация : Digital Theater Systems
    Режим : 16
    Параметр Endianness формата : Big
    Идентификатор кодека : A_DTS
    Продолжительность : 2 ч. 2 м.
    Вид битрейта : Постоянный
    Битрейт : 1509 Кбит/сек
    Каналы : 6 каналов
    Расположение каналов : Front: L C R, Side: L R, LFE
    Частота : 48,0 КГц
    Битовая глубина : 24 бит
    Метод сжатия : С потерями
    Размер потока : 1,29 Гбайт (13%)
    Язык : English
    Default : Нет
    Forced : Нет

    Меню
    00:00:00.000 : en:00:00:00.000
    00:11:39.417 : en:00:11:39.417
    00:21:05.625 : en:00:21:05.625
    00:30:51.917 : en:00:30:51.917
    00:41:13.292 : en:00:41:13.292
    00:51:46.792 : en:00:51:46.792
    01:03:02.500 : en:01:03:02.500
    01:13:38.250 : en:01:13:38.250
    01:25:15.583 : en:01:25:15.583
    01:35:52.667 : en:01:35:52.667
    01:45:50.708 : en:01:45:50.708
    01:55:37.250 : en:01:55:37.250

    Залил: DGEKIGAN
    Размер скачиваемого торрента: 9.86 GB (10581770296 Bytes)

    Паганини: Скрипач Дьявола / The Devils Violinist (2013) BDRip 1080p от CINEMANIA | D скачать через торрент бесплатно
    загрузка...
    Рейтинг →
     (голосов: 1, оценка 4/5, голосовать можно 1 раз )

    Другие торренты по теме:

  • Паганини: Скрипач Дьявола / The Devils Violinist (2013) TS скачать через торрент бесплатно
  • Паганини: Скрипач Дьявола / The Devils Violinist (2013) SATRip
  • Паганини: Скрипач Дьявола / The Devils Violinist (2013) DVB
  • Паганини: Скрипач Дьявола / The Devils Violinist (2013) WEB-DLRip | iTunes
  • Паганини: Скрипач Дьявола / The Devils Violinist (2013) WEB-DL 720p | iTunes
  • Паганини: Скрипач Дьявола / The Devils Violinist (2013) WEB-DLRip-AVC | iTunes скачать через торрент бесплатно
  • Паганини: Скрипач Дьявола / The Devils Violinist (2013) DVDRip от Scarabey | Лицензия скачать через торрент бесплатно
  • Паганини: Скрипач Дьявола / The Devils Violinist (2013) WEB-DLRip от Scarabey | iTunes скачать через торрент бесплатно


    • Комментарии (0):

      Информация

      Информация

        Посетители, находящиеся в группе Гости, не могут оставлять комментарии в данной новости.

        ↓ Меню



        ↓ Опрос

        А Вы добавили сайт в закладки?
        Да
        Не


        Top 10 за месяц (Фильмы)