.
Авторизация | Регистрация
Хочешь лучшие торренты? Добавь свой email!
Добавить
» » Странный Томас / Odd Thomas (2013) BDRip-AVC | iPad | P скачать через торрент бесплатно




    Странный Томас / Odd Thomas (2013) BDRip-AVC | iPad | P скачать через торрент бесплатно

    Опубликовал: Админ | Дата: 27-02-2015, 11:10 | Просмотров: 254



    Странный Томас / Odd Thomas (2013) BDRip-AVC | iPad | P

    Русское название: Странный Томас
    Русское название в мировом прокате: Odd Thomas
    Создали в: 2013
    Категория жанра: триллер, детектив, фэнтези, боевик
    Главный режиссер: Стивен Соммерс
    Актеры: Антон Ельчин, Эддисон Тимлин, Гугу Мбата-Роу, Нико Торторелла, Пэттон Освальт, Уиллем Дефо, Леонор Варела, Мэттью Пейдж, Кэйси Мессер, Барни Леннин

    Сюжет фильма:
    Главный герой наделен даром (или проклятием) видеть мертвецов. Каждый их визит становится началом очередной охоты на убийцу - призраки ведут Томаса на помощь тем, кому еще рано расставаться с жизнью. О способности героя знают только самые близкие друзья и любимая девушка. С их помощью ему предстоит отвести большую беду от маленького городка в центре пустыни Мохаве.



    Снималось в: США
    Киностудия: Fusion Films (II), Future Films, Sommers Company
    Время просмотра: 01:36:47
    Перевод текста: Русский профессиональный многоголосый закадровый

    Файл
    Кодек для видео: H.264
    Качество фильма: BDRip-AVC 576p
    Информация о видео: 1024x428 (2.40:1) at 23.976 fps, AVC at 2000 kbps
    Информация о звуке:
    1: АAС 2.0 132 kbps - Русский профессиональный многоголосый закадровый
    2: АAС 2.0 138 kbps - Английский
    Субтитры: Отсутствуют

    MI

    General
    Complete name : C:CREATE264mod1outOdd.Thomas.2013.576p.P.m4v
    Format : MPEG-4
    Codec ID : M4V
    File size : 1.49 GiB
    Duration : 1h 36mn
    Overall bit rate mode : Variable
    Overall bit rate : 2 209 Kbps
    Movie name : Странный Томас
    Performer : Stephen Sommers
    Genre : Thriller
    ContentType : Short Film
    Deion : Главный герой наделен даром (или проклятием) видеть мертвецов. Каждый их визит становится началом очередной охоты на убийцу - призраки ведут Томаса на помощь тем, кому еще рано расставаться с жизнью.
    Recorded date : UTC 2014-02-28 08:00:00
    Encoded date : UTC 2014-04-09 17:16:22
    Tagged date : UTC 2014-04-09 17:18:21
    Copyright : Fusion Films (II), Future Films, Sommers Company
    Cover : Yes
    ContentRating : mpaa|Unrated|600|

    Title/Sort : Odd Thomas
    LongDeion : Главный герой наделен даром (или проклятием) видеть мертвецов. Каждый их визит становится началом очередной охоты на убийцу - призраки ведут Томаса на помощь тем, кому еще рано расставаться с жизнью. О способности героя знают только самые близкие друзья и любимая девушка. С их помощью ему предстоит отвести большую беду от маленького городка в центре пустыни Мохаве.
    AppleStoreCatalogID : 796897605
    Vendor : Apple:vendor_id:2013-572461

    Video
    ID : 1
    Format : AVC
    Format/Info : Advanced Video Codec
    Format profile : High@L4.1
    Format settings, CABAC : Yes
    Format settings, ReFrames : 9 frames
    Codec ID : avc1
    Codec ID/Info : Advanced Video Coding
    Duration : 1h 36mn
    Bit rate : 1 922 Kbps
    Maximum bit rate : 15.3 Mbps
    Width : 1 024 pixels
    Height : 428 pixels
    Display aspect ratio : 2.40:1
    Frame rate mode : Constant
    Frame rate : 23.976 fps
    Color space : YUV
    Chroma subsampling : 4:2:0
    Bit depth : 8 bits
    Scan type : Progressive
    Bits/(Pixel*Frame) : 0.183
    Stream size : 1.30 GiB (87%)
    Title : Odd Thomas _2013_
    Language : English
    Encoded date : UTC 2014-04-09 17:16:22
    Tagged date : UTC 2014-04-09 17:16:43
    Matrix coefficients : BT.709

    Audio #1
    ID : 2
    Format : AAC
    Format/Info : Advanced Audio Codec
    Format profile : LC
    Codec ID : 40
    Duration : 1h 36mn
    Bit rate mode : Variable
    Bit rate : 132 Kbps
    Maximum bit rate : 175 Kbps
    Channel(s) : 2 channels
    Channel positions : Front: L R
    Sampling rate : 48.0 KHz
    Compression mode : Lossy
    Stream size : 90.4 MiB (6%)
    Title : MVO
    Language : Russian
    Encoded date : UTC 2014-04-09 17:08:52
    Tagged date : UTC 2014-04-09 17:16:43

    Audio #2
    ID : 3
    Format : AAC
    Format/Info : Advanced Audio Codec
    Format profile : LC
    Codec ID : 40
    Duration : 1h 36mn
    Bit rate mode : Variable
    Bit rate : 138 Kbps
    Maximum bit rate : 189 Kbps
    Channel(s) : 2 channels
    Channel positions : Front: L R
    Sampling rate : 48.0 KHz
    Compression mode : Lossy
    Stream size : 95.3 MiB (6%)
    Title : Original
    Language : English
    Encoded date : UTC 2014-04-09 17:12:31
    Tagged date : UTC 2014-04-09 17:16:43

    iTunes tags


    Sort Name: Odd Thomas
    XID: Apple:vendor_id:2013-572461
    Content ID: 796897605
    Copyright: Fusion Films (II), Future Films, Sommers Company
    ScreenWriters: Стивен Соммерс, Дин Р. Кунц
    Producers: Джон Балдеччи, Ховард Каплан, Стивен Соммерс
    Director: Стивен Соммерс
    Cast: Антон Ельчин, Эддисон Тимлин, Гугу Мбата-Роу, Нико Торторелла, Пэттон Освальт, Уиллем Дефо, Эшли Соммерс, Леонор Варела, Мэттью Пейдж, Кэйси Мессер
    Rating: Unrated
    Long Deion: Главный герой наделен даром (или проклятием) видеть мертвецов. Каждый их визит становится началом очередной охоты на убийцу - призраки ведут Томаса на помощь тем, кому еще рано расставаться с жизнью. О способности героя знают только самые близкие друзья и любимая девушка. С их помощью ему предстоит отвести большую беду от маленького городка в центре пустыни Мохаве.
    Deion: Главный герой наделен даром (или проклятием) видеть мертвецов. Каждый их визит становится началом очередной охоты на убийцу - призраки ведут Томаса на помощь тем, кому еще рано расставаться с жизнью.
    Release Date: 2014-02-28T08:00:00Z
    Genre: Thriller
    Artist: Stephen Sommers
    Name: Странный Томас

    x264

    x264 info: frame I:1239 Avg QP:15.26 size: 80583
    x264 info: frame P:36210 Avg QP:19.50 size: 21756
    x264 info: frame B:101791 Avg QP:23.28 size: 4988
    x264 info: consecutive B-frames: 5.0% 4.1% 12.4% 24.4% 22.5% 27.7% 2.4% 0.6% 0.3% 0.1% 0.1% 0.1% 0.3%
    x264 info: mb I I16..4: 17.7% 44.3% 38.0%
    x264 info: mb P I16..4: 1.3% 7.4% 2.1% P16..4: 28.5% 32.3% 12.1% 3.9% 0.8% skip:11.6%
    x264 info: mb B I16..4: 0.1% 0.8% 0.2% B16..8: 33.4% 14.6% 2.2% direct: 2.9% skip:45.7% L0:37.3% L1:46.8% BI:15.9%
    x264 info: 8x8 transform intra:64.5% inter:50.1%
    x264 info: coded y,uvDC,uvAC intra: 83.8% 79.4% 54.9% inter: 16.1% 13.0% 6.9%
    x264 info: i16 v,h,dc,p: 13% 16% 10% 61%
    x264 info: i8 v,h,dc,ddl,ddr,vr,hd,vl,hu: 10% 9% 4% 10% 14% 14% 14% 12% 14%
    x264 info: i4 v,h,dc,ddl,ddr,vr,hd,vl,hu: 14% 11% 5% 9% 13% 12% 12% 11% 13%
    x264 info: i8c dc,h,v,p: 35% 26% 20% 19%
    x264 info: Weighted P-Frames: Y:3.2% UV:2.3%
    x264 info: ref P L0: 65.2% 11.9% 11.2% 4.0% 2.6% 1.9% 1.5% 0.8% 0.8% 0.2% 0.0%
    x264 info: ref B L0: 91.9% 4.4% 1.8% 0.7% 0.5% 0.3% 0.3% 0.1%
    x264 info: ref B L1: 96.0% 4.0%
    x264 info: kb/s:1922.19


    full-size screenshots
















    Залил: gekka
    Размер скачиваемого торрента: 1.49 GB (1603548090 Bytes)

    Странный Томас / Odd Thomas (2013) BDRip-AVC | iPad | P скачать через торрент бесплатно
    загрузка...
    Рейтинг →
     (голосов: 1, оценка 5/5, голосовать можно 1 раз )

    Другие торренты по теме:

  • Странный Томас / Odd Thomas (2013) DVDRip | L2
  • Странный Томас / Odd Thomas (2013) DVDRip-AVC | P
  • Странный Томас / Odd Thomas (2013) HDRip | P скачать через торрент бесплатно
  • Странный Томас / Odd Thomas (2013) DVDRip | iPhone скачать через торрент бесплатно
  • Странный Томас / Odd Thomas (2013) HDRip от ed_rez | P
  • Странный Томас / Odd Thomas (2013) BDRip 720p от MULTIBITS | P
  • Странный Томас / Odd Thomas (2013) BDRip 1080p от MULTIBITS | P скачать через торрент бесплатно
  • Странный Томас / Odd Thomas (2013) BDRip 1080p от CINEMANIA | P , L2 скачать через торрент бесплатно


    • Комментарии (0):

      Информация

      Информация

        Посетители, находящиеся в группе Гости, не могут оставлять комментарии в данной новости.

        ↓ Меню



        ↓ Опрос

        А Вы добавили сайт в закладки?
        Да
        Не


        Top 10 за месяц (Фильмы)