.
Авторизация | Регистрация
» » Гримм / Grimm (2012-2013) WEB-DLRip от Generalfilm | КПК | LostFilm скачать через торрент бесплатно




    Гримм / Grimm (2012-2013) WEB-DLRip от Generalfilm | КПК | LostFilm скачать через торрент бесплатно

    Опубликовал: Админ | Дата: 27-02-2015, 11:10 | Просмотров: 495



    Детально о кино
    Русское название: Гримм
    Русское название в мировом прокате: Grimm
    Создали в: 2011
    Категория жанра: Ужасы, фантастика, фэнтези, драма
    Главный режиссёр: Марк Баклэнд
    Актеры: Дэйв Гвинтоли, Расселл Хорнсби, Битси Таллоч, Сайлас Уэйр Митчелл, Саша Ройз, Регги Ли, Клэр Коффи, Айанна Беркшир, Кейт Бёртон, Тим Бэгли и др.

    Сюжет:
    Действие происходит в современном Портленде, где детектив из отдела убийств узнаёт, что он является потомком группы охотников, известных как Гриммы, которые сражаются, чтобы сохранить человечество в безопасности от сверхъестественных существ. Узнав о своей судьбе, и том, что он является последним из своего рода, он должен защитить каждую живую душу от зловещих персонажей сборника сказок, которые проникли в реальный мир.



    Снималось в: США
    Время просмотра: 61 x ~00:43:00
    Перевод текста: Профессиональный (многоголосый, закадровый) LostFilm

    Файл
    Тип видео: MP4
    Качество фильма: WEB-DLRip | КПК
    Информация о видео: MPEG-4 AVC (x264), 640x360, ~500 kbps, 23.976 fps
    Информация о звуке: AAC LC, 48.0 KHz, 2 ch, 128 Kbps
    Субтитры: Нет

    Раздача ведётся путём добавления новых серий.

    Семпл

    Скриншоты для ознакомления

    MI
    K:киноGrimm.Sezon2.2012.AVC.WEB-DLRip.KPK.GeneralfilmGrimm.s02e01.2012.AVC.WEB-DLRip.KPK.Generalfilm.mp4
    Format : MPEG-4
    Format profile : Base Media
    Codec ID : isom
    File size : 195 MiB
    Duration : 43mn 16s
    Overall bit rate mode : Variable
    Overall bit rate : 630 Kbps
    Encoded date : UTC 2013-05-12 17:16:14
    Tagged date : UTC 2013-05-12 17:16:14
    Video #1
    ID : 1
    Format : AVC
    Format/Info : Advanced Video Codec
    Format profile : Baseline@L4.1
    Format settings, CABAC : No
    Format settings, ReFrames : 6 frames
    Codec ID : avc1
    Codec ID/Info : Advanced Video Coding
    Duration : 43mn 16s
    Bit rate : 500 Kbps
    Maximum bit rate : 3 217 Kbps
    Width : 640 pixels
    Height : 360 pixels
    Display aspect ratio : 16:9
    Frame rate mode : Constant
    Frame rate : 23.976 fps
    Color space : YUV
    Chroma subsampling : 4:2:0
    Bit depth : 8 bits
    Scan type : Progressive
    Bits/(Pixel*Frame) : 0.091
    Stream size : 155 MiB (79%)
    Writing library : x264 core 116 r2074 2641b9e
    Encoding settings : cabac=0 / ref=6 / deblock=1:-1:-1 / analyse=0x1:0x111 / me=umh / subme=7 / psy=1 / psy_rd=1.00:0.00 / mixed_ref=0 / me_range=16 / chroma_me=1 / trellis=1 / 8x8dct=0 / cqm=0 / deadzone=21,11 / fast_pskip=0 / chroma_qp_offset=-2 / threads=3 / sliced_threads=0 / nr=0 / decimate=1 / interlaced=0 / bluray_compat=0 / constrained_intra=0 / bframes=0 / weightp=0 / keyint=250 / keyint_min=23 / scenecut=40 / intra_refresh=0 / rc_lookahead=60 / rc=2pass / mbtree=1 / bitrate=500 / ratetol=1.0 / qcomp=0.60 / qpmin=0 / qpmax=69 / qpstep=4 / cplxblur=20.0 / qblur=0.5 / ip_ratio=1.40 / aq=1:1.00
    Encoded date : UTC 2013-05-12 17:16:14
    Tagged date : UTC 2013-05-12 17:16:25
    Audio #2
    ID : 2
    Format : AAC
    Format/Info : Advanced Audio Codec
    Format profile : LC
    Codec ID : 40
    Duration : 43mn 16s
    Bit rate mode : Variable
    Bit rate : 128 Kbps
    Maximum bit rate : 148 Kbps
    Channel(s) : 2 channels
    Channel positions : Front: L R
    Sampling rate : 48.0 KHz
    Compression mode : Lossy
    Stream size : 39.5 MiB (20%)
    Encoded date : UTC 2013-05-12 17:16:22
    Tagged date : UTC 2013-05-12 17:16:25

    Релиз подготовил:
    Залил: toys_watch
    Размер скачиваемого торрента: 11.62 GB (12478325695 Bytes)

    Гримм / Grimm (2012-2013) WEB-DLRip от Generalfilm | КПК | LostFilm скачать через торрент бесплатно
    загрузка...
    Рейтинг →
     (голосов: 1, оценка 5/5, голосовать можно 1 раз )

    Другие торренты по теме:

  • Гримм / Grimm (2012-2013) WEB-DL 720p | LostFilm торрент скачать бесплатно
  • Гримм Братья - По следам Бременских Музыкантов (1973) (2012) FLAC торрент скачать бесплатно
  • Гримм Братья - Бременские музыканты (1969) (2012) FLAC торрент скачать бесплатно
  • Братья Гримм / The Brothers Grimm (2005) BDRip-AVC от 0ptimus | D, P2, A торрент скачать бесплатно
  • Гайдн Миддлтон - Последняя сказка братьев Гримм (2012) FB2, TXT торрент скачать бесплатно
  • Три типа (Тбили, ХТБ, Вася Кимо) - Гримм (2013) MP3 от AGR - Generalfilm торрент скачать бесплатно
  • Гримм / Grimm (2013-2014) WEB-DLRip | LostFilm скачать через торрент бесплатно
  • Гримм / Grimm (2013) HDTVRip | Kerob скачать через торрент бесплатно


    • Комментарии (0):

      Информация

      Информация

        Посетители, находящиеся в группе Гости, не могут оставлять комментарии в данной новости.

        ↓ Меню



        ↓ Опрос

        А Вы добавили сайт в закладки?
        Да
        Не


        Top 10 за неделю (Фильмы)