.
Авторизация | Регистрация
Хочешь лучшие торренты? Добавь свой email!
Добавить
» » Конгресс / The Congress (2013) DVDRip-AVC | P торрент скачать бесплатно




    Конгресс / The Congress (2013) DVDRip-AVC | P торрент скачать бесплатно

    Опубликовал: Админ | Дата: 27-02-2015, 11:10 | Просмотров: 236



    Детально о кино
    Русское название: Конгресс
    Русское название в мировом прокате: The Congress
    Создали в: 2013
    Категория жанра: фантастика, мультфильм, драма
    Главный режиссер: Ари Фольман
    Актеры: Робин Райт, Харви Кейтель, Джон Хэмм, Пол Джаматти, Коди Смит-МакФи, Дэнни Хьюстон, Сами Гэйл, Майкл Сталь-Дэвид, Майкл Лэндис, Сара Шахи

    Сюжет фильма: Фильм снят по мотивам романа Футуристический конгресс Станислава Лема. Стареющая безработная актриса соглашается на последнюю работу, не представляя себе последствий, которые повлечет за собой это решение…



    Снималось в: Израиль, Германия, Польша, Люксембург, Франция, Бельгия
    Время просмотра: 01:57:47
    Перевод текста: Профессиональный (многоголосый, закадровый)

    Файл
    Качество фильма: DVDRip-AVC
    Тип видео: MKV
    Информация о видео: MPEG4/AVC, 720х388 (1.85:1), 1212 Кбит/сек, 25.000 кадров/сек
    Информация о звуке 1: MP3, 2 канала, 128 Кбит/сек | Rus
    Информация о звуке 2: AC3, 6 каналов, 448 Кбит/сек | Eng
    Субтитры: Английские
    Навигация по главам: Есть

    MediaInfo:
    Общее
    Уникальный идентификатор : 243155544858090287324792944673569552169 (0xB6EE0DF39EC452979657ABE15496B729)
    Полное имя : The Congress. (2013) DVDRip-AVC.mkv
    Формат : Matroska
    Версия формата : Version 2
    Размер файла : 1,50 Гбайт
    Продолжительность : 1 ч. 57 м.
    Общий поток : 1824 Кбит/сек
    Дата кодирования : UTC 2014-04-11 13:48:01
    Программа кодирования : mkvmerge v5.8.0 (;No Sleep / Pillow;) built on Sep 2 2012 15:37:04
    Библиотека кодирования : libebml v1.2.3 libmatroska v1.3.0

    Видео
    Идентификатор : 1
    Формат : AVC
    Формат/Информация : Advanced Video Codec
    Профиль формата : High@L3.1
    Параметр CABAC формата : Да
    Параметр ReFrames формата : 5 кадров
    Идентификатор кодека : V_MPEG4/ISO/AVC
    Продолжительность : 1 ч. 57 м.
    Битрейт : 1212 Кбит/сек
    Ширина : 720 пикселей
    Высота : 388 пикселей
    Соотношение сторон : 1,85:1
    Режим частоты кадров : Постоянный
    Частота кадров : 25,000 кадров/сек
    Цветовое пространство : YUV
    Субдискретизация насыщенности : 4:2:0
    Битовая глубина : 8 бит
    Тип развёртки : Прогрессивная
    Бит/(Пиксели*Кадры) : 0.174
    Размер потока : 1021 Мбайт (66%)
    Библиотека кодирования : x264 core 140 r2377 1ca7bb9
    Настройки программы : cabac=1 / ref=5 / deblock=1:-2:-2 / analyse=0x3:0x133 / me=umh / subme=8 / psy=1 / psy_rd=0.90:0.00 / mixed_ref=1 / me_range=16 / chroma_me=1 / trellis=1 / 8x8dct=1 / cqm=0 / deadzone=21,11 / fast_pskip=1 / chroma_qp_offset=-2 / threads=12 / lookahead_threads=2 / sliced_threads=0 / nr=0 / decimate=1 / interlaced=0 / bluray_compat=0 / constrained_intra=0 / bframes=3 / b_pyramid=2 / b_adapt=2 / b_bias=0 / direct=3 / weightb=1 / open_gop=0 / weightp=2 / keyint=250 / keyint_min=25 / scenecut=40 / intra_refresh=0 / rc_lookahead=50 / rc=crf / mbtree=1 / crf=19.0 / qcomp=0.60 / qpmin=0 / qpmax=69 / qpstep=4 / ip_ratio=1.40 / aq=1:1.00
    Язык : English
    Default : Да
    Forced : Нет

    Аудио #1
    Идентификатор : 2
    Формат : MPEG Audio
    Версия формата : Version 1
    Профиль формата : Layer 3
    Режим : Joint stereo
    Расширение режима : MS Stereo
    Идентификатор кодека : A_MPEG/L3
    Идентификатор кодека/Подсказка : MP3
    Продолжительность : 1 ч. 57 м.
    Вид битрейта : Постоянный
    Битрейт : 128 Кбит/сек
    Каналы : 2 канала
    Частота : 48,0 КГц
    Метод сжатия : С потерями
    Размер потока : 108 Мбайт (7%)
    Заголовок : Rus
    Язык : Russian
    Default : Да
    Forced : Нет

    Аудио #2
    Идентификатор : 3
    Формат : AC-3
    Формат/Информация : Audio Coding 3
    Расширение режима : CM (complete main)
    Параметр Endianness формата : Big
    Идентификатор кодека : A_AC3
    Продолжительность : 1 ч. 57 м.
    Вид битрейта : Постоянный
    Битрейт : 448 Кбит/сек
    Каналы : 6 каналов
    Расположение каналов : Front: L C R, Side: L R, LFE
    Частота : 48,0 КГц
    Битовая глубина : 16 бит
    Метод сжатия : С потерями
    Размер потока : 377 Мбайт (25%)
    Заголовок : Eng
    Язык : English
    Default : Нет
    Forced : Нет

    Текст
    Идентификатор : 4
    Формат : UTF-8
    Идентификатор кодека : S_TEXT/UTF8
    Идентификатор кодека/Информация : UTF-8 Plain Text
    Заголовок : Eng
    Язык : English
    Default : Нет
    Forced : Нет

    Меню
    00:00:00.000 : en:00:00:00.000
    00:07:24.960 : en:00:07:24.960
    00:16:23.040 : en:00:16:23.040
    00:28:34.080 : en:00:28:34.080
    00:42:30.720 : en:00:42:30.720
    00:51:23.520 : en:00:51:23.520
    01:03:16.320 : en:01:03:16.320
    01:09:59.520 : en:01:09:59.520
    01:19:22.560 : en:01:19:22.560
    01:26:12.960 : en:01:26:12.960
    01:38:20.640 : en:01:38:20.640
    01:52:11.040 : en:01:52:11.040
    01:57:46.560 : en:01:57:46.560

    Скриншоты для ознакомления:

    Размер скачиваемого торрента: 1.50 GB (1611701149 Bytes)

    Конгресс / The Congress (2013) DVDRip-AVC | P торрент скачать бесплатно
    загрузка...
    Рейтинг →
     (голосов: 1, оценка 4/5, голосовать можно 1 раз )

    Другие торренты по теме:

  • Веселый конгресс / Der Kongress tanzt (1931) DVDRip от egoleshik | P2
  • Конгресс / The Congress (2013) DVDRip | P скачать через торрент бесплатно
  • Конгресс / The Congress (2013) BDRip 1080p от CINEMANIA | P скачать через торрент бесплатно
  • Конгресс / The Congress (2013) BDRip 720p от CINEMANIA | P скачать через торрент бесплатно
  • Футурологический конгресс скачать через торрент бесплатно
  • Конгресс / The Congress (2013) HDRip | iTunes
  • Конгресс / The Congress (2013) HDRip от Scarabey | iTunes
  • Конгресс / The Congress (2013) HDRip от Scarabey | D


    • Комментарии (0):

      Информация

      Информация

        Посетители, находящиеся в группе Гости, не могут оставлять комментарии в данной новости.

        ↓ Меню



        ↓ Опрос

        А Вы добавили сайт в закладки?
        Да
        Не


        Top 10 за месяц (Фильмы)