.
Авторизация | Регистрация
» » Человек из стали / Man of Steel (2013) BDRip | D, A торрент скачать бесплатно




    Человек из стали / Man of Steel (2013) BDRip | D, A торрент скачать бесплатно

    Опубликовал: Админ | Дата: 27-02-2015, 11:10 | Просмотров: 253



    Детально о кино
    Русское название: Человек из стали
    Русское название в мировом прокате: Man of Steel
    Создали в: 2013
    Категория жанра: фантастика, фэнтези, боевик, приключения
    Главный режиссер: Зак Снайдер
    Актеры: Генри Кавилл, Эми Адамс, Майкл Шеннон, Кевин Костнер, Дайан Лэйн, Лоуренс Фишборн, Антье Трауэ, Айелет Зурер, Расселл Кроу, Гарри Дж. Ленникс, Ричард Шифф, Кристофер Мелони, Дилан Спрейберри, Купер Тимберлайн, Ричард Цетрон, МакКензи Грэй, Джулиан Ричингс, Мэри Блэк, Саманта Джоо

    Сюжет фильма:
    Кларк Кент/Кал-Эл — молодой журналист, который чувствует себя чужаком из-за своей невероятной силы. Много лет назад он был отправлен на Землю с развитой планеты Криптон, и теперь задается вопросом: зачем? Воспитанный приемными родителями Мартой и Джонатаном Кентами, Кларк знает: обладать сверхспособностями — значит принимать сложные решения. Но когда человечество более всего нуждается в стабильности, оно подвергается нападению. Сможет ли герой восстановить мир, или воспользуется своей силой для того, чтобы окончательно его разрушить? Кларк должен стать супергероем известным как Супермен, чтобы вселять надежду в сердца людей и защищать тех, кого он любит.



    Снималось в: США, Канада, Великобритания
    Киностудия: DC Entertainment, Legendary Pictures, Syncopy, Third Act Productions, Warner Bros. Pictures
    Время просмотра: 02:23:02
    Перевод текста: Дублированный, авторский

    Файл
    Кодек для видео: XviD
    Качество фильма: BDRip
    Информация о видео: 1995 Кбит/с, 720x304, 23.976 кадр/с

    Информация о звуке:
    • №1: Русский (AC3, 6 ch, 384 Кбит/с) Дублированный
    • №2: Русский (АС3, 6 ch, 384 Кбит/с) Авторский одноголосый Андрей Гаврилов
    Отдельно:
    • №3: Русский (АС3, 6 ch, 384 Кбит/с) Авторский одноголосый Юрий Сербин
    • №4: Украинский (AC3, 6 ch, 384 Кбит/с) Дублированный Студия Postmodern по заказу Киномании
    • №5: Английский (АС3, 6 ch, 384 Кбит/с)

    Субтитры: Русские, украинские, английские

    Релиз

    Видеоряд: HQClub
    MI

    Общее
    Полное имя : Man.Of.Steel.2013.XviD.BDRipMan.Of.Steel.2013.XviD.Dub.AVO.BDRip.avi
    Формат : AVI
    Формат/Информация : Audio Video Interleave
    Профиль формата : OpenDML
    Размер файла : 2,78 Гбайт
    Продолжительность : 2 ч. 23 м.
    Общий поток : 2779 Кбит/сек
    Название фильма : Человек из стали | Man of Steel 2013 BDRip
    Режиссёр : yaroslaigor
    Жанр : фантастика, фэнтези, боевик
    Программа кодирования : VirtualDubMod 1.5.10.2 (build 2540/release)
    Библиотека кодирования : VirtualDubMod build 2540/release
    Формат оригинала/Имя : Movie
    Примечание : Дубляж, авторский Гаврилов

    Видео
    Идентификатор : 0
    Формат : MPEG-4 Visual
    Профиль формата : Advanced Simple@L5
    Параметр BVOP формата : 1
    Параметр QPel формата : Нет
    Параметр GMC формата : Без точки перехода
    Параметр матрицы формата : Выборочная
    Идентификатор кодека : XVID
    Идентификатор кодека/Подсказка : XviD
    Продолжительность : 2 ч. 23 м.
    Битрейт : 1995 Кбит/сек
    Ширина : 720 пикселей
    Высота : 304 пикселя
    Соотношение сторон : 2,35:1
    Частота кадров : 23,976 кадра/сек
    Цветовое пространство : YUV
    Субдискретизация насыщенности : 4:2:0
    Битовая глубина : 8 бит
    Тип развёртки : Прогрессивная
    Метод сжатия : С потерями
    Бит/(Пиксели*Кадры) : 0.380
    Размер потока : 1,99 Гбайт (72%)
    Библиотека кодирования : XviD 65

    Аудио #1
    Идентификатор : 1
    Формат : AC-3
    Формат/Информация : Audio Coding 3
    Расширение режима : CM (complete main)
    Параметр Endianness формата : Big
    Идентификатор кодека : 2000
    Продолжительность : 2 ч. 23 м.
    Вид битрейта : Постоянный
    Битрейт : 384 Кбит/сек
    Каналы : 6 каналов
    Расположение каналов : Front: L C R, Side: L R, LFE
    Частота : 48,0 КГц
    Битовая глубина : 16 бит
    Метод сжатия : С потерями
    Размер потока : 393 Мбайт (14%)
    Выравнивание : Разделение по промежуткам
    Продолжительность промежутка : 42 мс. (1,00 видеокадр)
    Время предзагрузки промежутка : 500 мс.

    Аудио #2
    Идентификатор : 2
    Формат : AC-3
    Формат/Информация : Audio Coding 3
    Расширение режима : CM (complete main)
    Параметр Endianness формата : Big
    Идентификатор кодека : 2000
    Продолжительность : 2 ч. 23 м.
    Вид битрейта : Постоянный
    Битрейт : 384 Кбит/сек
    Каналы : 6 каналов
    Расположение каналов : Front: L C R, Side: L R, LFE
    Частота : 48,0 КГц
    Битовая глубина : 16 бит
    Метод сжатия : С потерями
    Размер потока : 393 Мбайт (14%)
    Выравнивание : Разделение по промежуткам
    Продолжительность промежутка : 42 мс. (1,00 видеокадр)
    Время предзагрузки промежутка : 500 мс.
    Скриншоты для ознакомления



    Размер скачиваемого торрента: 3.93 GB (4218391386 Bytes)

    Человек из стали / Man of Steel (2013) BDRip | D, A торрент скачать бесплатно
    загрузка...
    Рейтинг →
     (голосов: 1, оценка 4/5, голосовать можно 1 раз )

    Другие торренты по теме:

  • Песочный человек / Der Sandmann (2011) DVDRip-AVC от potroks | P | Лицензия торрент скачать бесплатно
  • Два с половиной человека / Two and a Half Men (2012) WEB-DL 1080p | Jimmy J торрент скачать бесплатно
  • Совершенный Человек-Паук / Ultimate Spider-Man (2012) WEB-DL 720p от Filmrus торрент скачать бесплатно
  • Свиридов Алексей - Человек с железного острова (2013) MP3 торрент скачать бесплатно
  • OST - Двухсотлетний человек / Bicentennial Man Soundtrack (1999) MP3 торрент скачать бесплатно
  • Человек с железными кулаками / The Man with the Iron Fists (2012) HDTVRip-AVC | L2 торрент скачать бесплатно
  • Пальцев М.А., Аничков Н.М. - Атлас патологии опухолей человека (2005) DJVU торрент скачать бесплатно
  • Человек и закон (2012) SATRip торрент скачать бесплатно


    • Комментарии (0):

      Информация

      Информация

        Посетители, находящиеся в группе Гости, не могут оставлять комментарии в данной новости.

        ↓ Меню



        ↓ Опрос

        А Вы добавили сайт в закладки?
        Да
        Не


        Top 10 за неделю (Фильмы)