.
Авторизация | Регистрация
» » Душа убийцы / Soul Assassin (2001) DVDRip от NovaLan торрент скачать бесплатно




    Душа убийцы / Soul Assassin (2001) DVDRip от NovaLan торрент скачать бесплатно

    Опубликовал: Админ | Дата: 27-02-2015, 11:10 | Просмотров: 226



    Снималось в: Нидерланды
    Создали в: Parabolic Pictures Inc., Rebel Film BV, Reynolds Entertainment
    Категория жанра: Боевик
    Создали в: 2001

    Время просмотра: 01:33:00

    Перевод текста: Профессиональный многоголосый

    Главный режиссер: Лоуренс Малкин

    Актеры: Скит Ульрих, Кристи Суонсон, Дерек де Линт, Рина Оуэн, Энтони Камерлинг, Серж-Анри Вальке, Николас Айронс, Том Хоффман, Кэтерин Лэнг, Андре Аренд ван де Ноорд

    Сюжет: Кевин Берк — молодой амбициозный секретный агент — нанят могущественной международной компанией, которой руководит зловещий Карл Йоргенсен. Он относится к Кевину как к собственному сыну, зная историю трагической гибели его отца. Но трагедия входит в жизнь Кевина снова, когда убивают его невесту. На этот раз он клянется сам выследить убийцу. С этого момента он вступает в опасную игру, постепенно узнавая об окружающей жизни то, что даже не хотел бы знать. Была ли Розалинд вовлечена в мировую преступную сеть? Что хранится на диске Интерпола и кем в действительности является сын Йоргенсена Джуниор?



    Исходник: DVD5 R5

    Тип релиза: DVDRip

    Контейнер: AVI

    Информация о видео: XviD, 1904 Кбит/с, 704x464
    Информация о звуке: АС3, 2 ch, 192 Кбит/с

    MediaInfo
    Общее
    Полное имя : D:1АААДуша убийцы.avi
    Формат : AVI
    Формат/Информация : Audio Video Interleave
    Размер файла : 1,37 Гбайт
    Продолжительность : 1 ч. 32 м.
    Общий поток : 2105 Кбит/сек
    Программа кодирования : VirtualDubMod 1.5.10.3 | www.virtualdub-fr.org || (build 2550/release)
    Библиотека кодирования : VirtualDubMod build 2550/release

    Видео
    Идентификатор : 0
    Формат : MPEG-4 Visual
    Профиль формата : Advanced Simple@L5
    Параметр BVOP формата : 2
    Параметр QPel формата : Нет
    Параметр GMC формата : Без точки перехода
    Параметр матрицы формата : Default (MPEG)
    Идентификатор кодека : XVID
    Идентификатор кодека/Подсказка : XviD
    Продолжительность : 1 ч. 32 м.
    Битрейт : 1904 Кбит/сек
    Ширина : 704 пикселя
    Высота : 464 пикселя
    Соотношение сторон : 3:2
    Частота кадров : 23,976 кадра/сек
    Цветовое пространство : YUV
    Субдискретизация насыщенности : 4:2:0
    Битовая глубина : 8 бит
    Тип развёртки : Прогрессивная
    Метод сжатия : С потерями
    Бит/(Пиксели*Кадры) : 0.243
    Размер потока : 1,24 Гбайт (90%)
    Библиотека кодирования : XviD 1.2.1 (UTC 2008-12-04)

    Аудио
    Идентификатор : 1
    Формат : AC-3
    Формат/Информация : Audio Coding 3
    Расширение режима : CM (complete main)
    Параметр Endianness формата : Big
    Идентификатор кодека : 2000
    Продолжительность : 1 ч. 32 м.
    Вид битрейта : Постоянный
    Битрейт : 192 Кбит/сек
    Каналы : 2 канала
    Расположение каналов : Front: L R
    Частота : 48,0 КГц
    Битовая глубина : 16 бит
    Метод сжатия : С потерями
    Размер потока : 128 Мбайт (9%)
    Выравнивание : Разделение по промежуткам
    Продолжительность промежутка : 42 мс. (1,00 видеокадр)
    Время предзагрузки промежутка : 500 мс.




    Скриншоты для ознакомления




    Релиз группа:
    Автор рипа:
    Залил: YArl
    Размер скачиваемого торрента: 1.37 GB (1468454912 Bytes)

    Душа убийцы / Soul Assassin (2001) DVDRip от NovaLan торрент скачать бесплатно
    загрузка...
    Рейтинг →
     (голосов: 1, оценка 5/5, голосовать можно 1 раз )

    Другие торренты по теме:

  • Хапров Алексей - Аномалия души (2012) MP3 торрент скачать бесплатно
  • Пожиратель душ / Soul Eater (2008) BDRip 720p | Rezan Linokk торрент скачать бесплатно
  • С.Т.А.Я. - Память Русской Души (2012) MP3 торрент скачать бесплатно
  • Морская душа (2007) DVDRip торрент скачать бесплатно
  • Моторный город. Душа машины (2013) PC торрент скачать бесплатно
  • Дьяволицы / Дьявольские души / Les diaboliques / The Devils (1954) BDRip торрент скачать бесплатно
  • Сборник - Душевная музыка. Согрей мне душу, музыкант (2013) MP3 торрент скачать бесплатно
  • Сборник - Песни для души радио Шансон (2013) MP3 торрент скачать бесплатно


    • Комментарии (0):

      Информация

      Информация

        Посетители, находящиеся в группе Гости, не могут оставлять комментарии в данной новости.

        ↓ Меню



        ↓ Опрос

        А Вы добавили сайт в закладки?
        Да
        Не


        Top 10 за неделю (Фильмы)