.
Авторизация | Регистрация
» » Братство волка / Le Pacte Des Loups (2001) HDRip by msltel | D, P, A | Режиссёрская версия торрент скачать бесплатно




    Братство волка / Le Pacte Des Loups (2001) HDRip by msltel | D, P, A | Режиссёрская версия торрент скачать бесплатно

    Опубликовал: Админ | Дата: 27-02-2015, 11:10 | Просмотров: 217



    Русское название: Братство волка
    Русское название в мировом прокате: Le Pacte Des Loups
    Создали в: 2001
    Категория жанра: Ужасы, боевик, история
    Снималось в: Франция, Canal fr, Davis-Films, Eskwad, Natexis Banques Populaires Images, Studio Image Soficas, TF1 Films Production
    Главный режиссер: Кристоф Ганс
    Актеры: Марк Дакаскос, Венсан Кассель, Моника Беллуччи, Самюэль Ле Бьян, Эмили Декьенн, Жереми Ренье, Жан Янн, Жан-Франсуа Стевенен, Жак Перрен, Йохан Лейзен

    Сюжет фильма: Франция. Вторая половина XVIII века. В местечке под названием Жевадан появляется страшное существо, прозванное жителями Зверем. Оно безжалостно убивает женщин и детей. Зверь кажется неуловимым, уходя от многочисленных облав, его не берут пули, он исчезает так же внезапно как появляется, и только немногие выжившие способны описать его внешность. Сам король Людовик XV решает разобраться в происходящем и поручает расследовать жестокие убийства учёному Грегору де Фронсаку. С Грегором в Жевадане появляется ещё один герой - индеец Мани. Он когда-то спас де Фронсаку жизнь, и теперь они - братья по крови. Вокруг молчаливого индейца таинственности не меньше, чем вокруг Зверя. Мани прибегает к загадочным ритуалам, а в борьбе с монстром полагается на инстинкты и обычаи своего народа.

    Качество фильма: HDRip
    Размер скачиваемого торрента: 3.88 ГБ
    Время просмотра: 02:30:19

    Информация о видео: XviD, 1576 Кбит/с, 720x304
    Информация о звуке: русский, 48 kHz, AC3, 6 ch, 384 kbps avg, Профессиональный многоголосый

    Внешние файлы
    Информация о звуке: русский, 48 kHz, AC3, 6 ch, 448 kbps avg, Дублированный, с субтитрами на места без перевода
    Информация о звуке: русский, 48 kHz, AC3, 6 ch, 384 kbps avg, Авторский, Андрей Гаврилов
    Информация о звуке: русский, 48 kHz, AC3, 6 ch, 448 kbps avg, Авторский, Сергей Кузнецов
    Информация о звуке: французский, 48 kHz, AC3, 6 ch, 448 kbps avg, Оригинал
    Субтитры: русские (на места без перевода в дубляже)
    Субтитры: русские

    Исходник: Sergei7721 (Кинозал)

    Сравнение с исходником



    Награды
    Сатурн, 2009 год
    Номинации (1):
    Лучшее специальное DVD-издание — Director;s Cut

    Сезар, 2002 год
    Победитель (1):
    Лучшие костюмы

    Номинации (3):
    Лучший звук
    Лучший саундтрек
    Лучшие декорации

    Сатурн, 2002 год
    Номинации (8):
    Лучший режиссер (Кристоф Ганс)
    Лучший актер второго плана (Марк Дакаскос)
    Лучшая актриса второго плана (Моника Беллуччи)
    Лучший сценарий
    Лучшие костюмы
    Лучшие спецэффекты
    Лучшая музыка
    Лучший приключенческий фильм, боевик или триллер

    Европейская киноакадемия, 2001 год
    Номинации (1):
    Приз зрительских симпатий за лучшую работу режиссера (Кристоф Ганс)
    MediaInfo
    Общее
    Полное имя : D:VideoBratstvo Volka (DirCut).2001.XviD.HDRipBratstvo Volka (DirCut).2001.AVO.rus.А.Гаврилов.ac3
    Формат : AC-3
    Формат/Информация : Audio Coding 3
    Размер файла : 413 Мбайт
    Продолжительность : 2 ч. 30 м.
    Режим общего битрейта : Постоянный
    Общий поток : 384 Кбит/сек

    Аудио
    Формат : AC-3
    Формат/Информация : Audio Coding 3
    Расширение режима : CM (complete main)
    Параметр Endianness формата : Big
    Продолжительность : 2 ч. 30 м.
    Вид битрейта : Постоянный
    Битрейт : 384 Кбит/сек
    Каналы : 6 каналов
    Расположение каналов : Front: L C R, Side: L R, LFE
    Частота : 48,0 КГц
    Битовая глубина : 16 бит
    Метод сжатия : С потерями
    Размер потока : 413 Мбайт (100%)

    Общее
    Полное имя : D:VideoBratstvo Volka (DirCut).2001.XviD.HDRipBratstvo Volka (DirCut).2001.AVO.rus.С.Кузнецов.ac3
    Формат : AC-3
    Формат/Информация : Audio Coding 3
    Размер файла : 482 Мбайт
    Продолжительность : 2 ч. 30 м.
    Режим общего битрейта : Постоянный
    Общий поток : 448 Кбит/сек

    Аудио
    Формат : AC-3
    Формат/Информация : Audio Coding 3
    Расширение режима : CM (complete main)
    Параметр Endianness формата : Big
    Продолжительность : 2 ч. 30 м.
    Вид битрейта : Постоянный
    Битрейт : 448 Кбит/сек
    Каналы : 6 каналов
    Расположение каналов : Front: L C R, Side: L R, LFE
    Частота : 48,0 КГц
    Битовая глубина : 16 бит
    Метод сжатия : С потерями
    Размер потока : 482 Мбайт (100%)

    Общее
    Полное имя : D:VideoBratstvo Volka (DirCut).2001.XviD.HDRipBratstvo Volka (DirCut).2001.DUB.rus.ac3
    Формат : AC-3
    Формат/Информация : Audio Coding 3
    Размер файла : 482 Мбайт
    Продолжительность : 2 ч. 30 м.
    Режим общего битрейта : Постоянный
    Общий поток : 448 Кбит/сек

    Аудио
    Формат : AC-3
    Формат/Информация : Audio Coding 3
    Расширение режима : CM (complete main)
    Параметр Endianness формата : Big
    Продолжительность : 2 ч. 30 м.
    Вид битрейта : Постоянный
    Битрейт : 448 Кбит/сек
    Каналы : 6 каналов
    Расположение каналов : Front: L C R, Side: L R, LFE
    Частота : 48,0 КГц
    Битовая глубина : 16 бит
    Метод сжатия : С потерями
    Размер потока : 482 Мбайт (100%)

    Общее
    Полное имя : D:VideoBratstvo Volka (DirCut).2001.XviD.HDRipBratstvo Volka (DirCut).2001.Original.fre.ac3
    Формат : AC-3
    Формат/Информация : Audio Coding 3
    Размер файла : 482 Мбайт
    Продолжительность : 2 ч. 30 м.
    Режим общего битрейта : Постоянный
    Общий поток : 448 Кбит/сек

    Аудио
    Формат : AC-3
    Формат/Информация : Audio Coding 3
    Расширение режима : CM (complete main)
    Параметр Endianness формата : Big
    Продолжительность : 2 ч. 30 м.
    Вид битрейта : Постоянный
    Битрейт : 448 Кбит/сек
    Каналы : 6 каналов
    Расположение каналов : Front: L C R, Side: L R, LFE
    Частота : 48,0 КГц
    Битовая глубина : 16 бит
    Метод сжатия : С потерями
    Размер потока : 482 Мбайт (100%)

    Общее
    Полное имя : D:VideoBratstvo Volka (DirCut).2001.XviD.HDRipBratstvo Volka (DirCut).2001.rus.srt
    Размер файла : 151 Кбайт

    Общее
    Полное имя : D:VideoBratstvo Volka (DirCut).2001.XviD.HDRipBratstvo Volka (DirCut).2001.rus.на места без перевода в дубляже.srt
    Размер файла : 12,2 Кбайт

    Общее
    Полное имя : D:VideoBratstvo Volka (DirCut).2001.XviD.HDRipBratstvo Volka (DirCut).2001.XviD.HDRip.avi
    Формат : AVI
    Формат/Информация : Audio Video Interleave
    Профиль формата : OpenDML
    Размер файла : 2,07 Гбайт
    Продолжительность : 2 ч. 30 м.
    Общий поток : 1972 Кбит/сек
    Программа кодирования : VirtualDubMod 1.5.10.2 (build 2540/release)
    Библиотека кодирования : VirtualDubMod build 2540/release

    Видео
    Идентификатор : 0
    Формат : MPEG-4 Visual
    Профиль формата : Advanced Simple@L5
    Параметр BVOP формата : 1
    Параметр QPel формата : Нет
    Параметр GMC формата : Без точки перехода
    Параметр матрицы формата : Default (H.263)
    Режим смешивания : Сжатый битовый поток
    Идентификатор кодека : XVID
    Идентификатор кодека/Подсказка : XviD
    Продолжительность : 2 ч. 30 м.
    Битрейт : 1576 Кбит/сек
    Ширина : 720 пикселей
    Высота : 304 пикселя
    Соотношение сторон : 2,35:1
    Частота кадров : 23,976 кадра/сек
    Цветовое пространство : YUV
    Субдискретизация насыщенности : 4:2:0
    Битовая глубина : 8 бит
    Тип развёртки : Прогрессивная
    Метод сжатия : С потерями
    Бит/(Пиксели*Кадры) : 0.300
    Размер потока : 1,65 Гбайт (80%)
    Библиотека кодирования : XviD 1.2.1 (UTC 2008-12-04)

    Аудио
    Идентификатор : 1
    Формат : AC-3
    Формат/Информация : Audio Coding 3
    Расширение режима : CM (complete main)
    Параметр Endianness формата : Big
    Идентификатор кодека : 2000
    Продолжительность : 2 ч. 30 м.
    Вид битрейта : Постоянный
    Битрейт : 384 Кбит/сек
    Каналы : 6 каналов
    Расположение каналов : Front: L C R, Side: L R, LFE
    Частота : 48,0 КГц
    Битовая глубина : 16 бит
    Метод сжатия : С потерями
    Размер потока : 413 Мбайт (19%)
    Выравнивание : Разделение по промежуткам
    Продолжительность промежутка : 42 мс. (1,00 видеокадр)
    Время предзагрузки промежутка : 500 мс.
    Скриншоты для ознакомления



    Залил: msltel
    Размер скачиваемого торрента: 3.88 GB (4171334770 Bytes)

    Братство волка / Le Pacte Des Loups (2001) HDRip by msltel | D, P, A | Режиссёрская версия торрент скачать бесплатно
    загрузка...
    Рейтинг →
     (голосов: 1, оценка 5/5, голосовать можно 1 раз )

    Другие торренты по теме:

  • Братство волка / Le Pacte Des Loups (2001) BDRip | Режиссерская версия торрент скачать бесплатно
  • Братство волка / Brotherhood of the Wolf / Le Pacte des loups (2001) BDRip 1080p | 60 fps торрент скачать бесплатно
  • Братство волка / Le Pacte Des Loups (2001) HDDVDRip 720p by msltel | D, P, A | Режиссёрская версия торрент скачать бесплатно
  • Братство волка / Le Pacte des loups (2001) HDRip от Scarabey | UK Cut | D скачать торрент бесплатно
  • Братство волка / Le Pacte des loups (2001) HDRip от Scarabey | UK Cut | D скачать торрент бесплатно
  • Братство волка / Le Pacte des loups (2001) HDRip от HQ-ViDEO | Режиссерская версия | D скачать торрент бесплатно


    • Комментарии (0):

      Информация

      Информация

        Посетители, находящиеся в группе Гости, не могут оставлять комментарии в данной новости.

        ↓ Меню



        ↓ Опрос

        А Вы добавили сайт в закладки?
        Да
        Не


        Top 10 за неделю (Фильмы)