.
Авторизация | Регистрация
» » Шесть пуль / 6 Bullets (2012) BDRemux 1080p от NovaLan скачать через торрент бесплатно




    Шесть пуль / 6 Bullets (2012) BDRemux 1080p от NovaLan скачать через торрент бесплатно

    Опубликовал: Админ | Дата: 27-02-2015, 11:10 | Просмотров: 194



    Русское название: Шесть пуль
    Русское название в мировом прокате: 6 Bullets
    Создали в: 2012
    Категория жанра: Драма, комедия, криминал
    Главный режиссер: Эрни Барбараш
    Актеры: Жан-Клод Ван Дамм, Джо Флэниган, Анна-Луиза Плауман, Шарлотта Бомонт, Стив Николсон, Уриель Эмиль Поллак, Луис Демпси, Марк Льюис, Кристофер Ван Варенберг, Бьянка Бри, Флорин Басуйок, Селеста Ходж, Сорин Кристи, Иоан Ионеску, Адина Рапитеану, Сербанеску Флорин, Богдан Уритеску, Джимми Таунсенд
    Сюжет фильма:
    Фильм расскажет о бывшем наёмнике, занимавшимся розыском пропавших детей, которому предстоит отыскать дочь бывшего бойца смешанных единоборств.


    Снималось в: США, Motion Picture Corporation of America (MPCA), Rodin Entertainment
    Время просмотра: 01:54:47
    Перевод текста: Профессиональный многоголосый (РенТВ) / Авторский одноголосый (Карповский) / Любительский двухголосый (den904, DeadSno) / Любительский одноголосый

    Кодек для видео: H.264
    Качество фильма: Blu-Ray Remux 1080p
    Информация о видео: MPEG-4 AVC, 16981 Кбит/с, 1920x1080, 23.976 кадр/с
    Информация о звуке: Русский (AC3, 2 ch, 192 Кбит/с), (DTS-HD MA, 6 ch, 2206 Кбит/с), (AC3, 6 ch, 448 Кбит/с), английский (DTS-HD MA, 6 ch, 2224 Кбит/с)
    Субтитры: Русские, английские

    Инфо-файл

    Полное имя : E:Раздачи_E6.Bullets.2012.BDRemux.1080p.NovaLan.mkv
    Формат : Matroska
    Версия формата : Version 4 / Version 2
    Размер файла : 18,0 Гбайт
    Продолжительность : 1 ч. 54 м.
    Режим общего битрейта : Переменный
    Общий поток : 22,5 Мбит/сек
    Название фильма : 6 Bullets 2012 - NovaLan
    Дата кодирования : UTC 2014-04-16 20:33:29
    Программа кодирования : mkvmerge v6.8.0 (;Theme for Great Cities;) 64bit built on Mar 2 2014 21:34:26
    Библиотека кодирования : libebml v1.3.0 libmatroska v1.4.1

    Видео
    Идентификатор : 1
    Формат : AVC
    Формат/Информация : Advanced Video Codec
    Профиль формата : High@L4.1
    Параметр CABAC формата : Да
    Параметр ReFrames формата : 4 кадра
    Идентификатор кодека : V_MPEG4/ISO/AVC
    Продолжительность : 1 ч. 54 м.
    Вид битрейта : Переменный
    Битрейт : 16,9 Мбит/сек
    Максимальный битрейт : 35,0 Мбит/сек
    Ширина : 1920 пикселей
    Высота : 1080 пикселей
    Соотношение сторон : 16:9
    Частота кадров : 23,976 кадра/сек
    Цветовое пространство : YUV
    Субдискретизация насыщенности : 4:2:0
    Битовая глубина : 8 бит
    Тип развёртки : Прогрессивная
    Бит/(Пиксели*Кадры) : 0.340
    Размер потока : 13,5 Гбайт (75%)
    Заголовок : 6 Bullets 2012 - NovaLan
    Default : Да
    Forced : Нет

    Аудио #1
    Идентификатор : 2
    Формат : AC-3
    Формат/Информация : Audio Coding 3
    Расширение режима : CM (complete main)
    Параметр Endianness формата : Big
    Идентификатор кодека : A_AC3
    Продолжительность : 1 ч. 54 м.
    Вид битрейта : Постоянный
    Битрейт : 192 Кбит/сек
    Каналы : 2 канала
    Расположение каналов : Front: L R
    Частота : 48,0 КГц
    Битовая глубина : 16 бит
    Метод сжатия : С потерями
    Размер потока : 158 Мбайт (1%)
    Язык : Russian
    Default : Да
    Forced : Нет

    Аудио #2
    Идентификатор : 3
    Формат : DTS
    Формат/Информация : Digital Theater Systems
    Профиль формата : MA / Core
    Идентификатор кодека : A_DTS
    Продолжительность : 1 ч. 54 м.
    Вид битрейта : Переменный
    Битрейт : 2023 Кбит/сек / 1510 Кбит/сек
    Каналы : 6 каналов
    Расположение каналов : Front: L C R, Side: L R, LFE
    Частота : 48,0 КГц
    Битовая глубина : 16 бит
    Метод сжатия : Без потерь / Lossy
    Язык : Russian
    Default : Нет
    Forced : Нет

    Аудио #3
    Идентификатор : 4
    Формат : AC-3
    Формат/Информация : Audio Coding 3
    Расширение режима : CM (complete main)
    Параметр Endianness формата : Big
    Идентификатор кодека : A_AC3
    Продолжительность : 1 ч. 54 м.
    Вид битрейта : Постоянный
    Битрейт : 448 Кбит/сек
    Каналы : 6 каналов
    Расположение каналов : Front: L C R, Side: L R, LFE
    Частота : 48,0 КГц
    Битовая глубина : 16 бит
    Метод сжатия : С потерями
    Размер потока : 368 Мбайт (2%)
    Язык : Russian
    Default : Нет
    Forced : Нет

    Аудио #4
    Идентификатор : 5
    Формат : AC-3
    Формат/Информация : Audio Coding 3
    Расширение режима : CM (complete main)
    Параметр Endianness формата : Big
    Идентификатор кодека : A_AC3
    Продолжительность : 1 ч. 54 м.
    Вид битрейта : Постоянный
    Битрейт : 448 Кбит/сек
    Каналы : 6 каналов
    Расположение каналов : Front: L C R, Side: L R, LFE
    Частота : 48,0 КГц
    Битовая глубина : 16 бит
    Метод сжатия : С потерями
    Размер потока : 368 Мбайт (2%)
    Язык : Russian
    Default : Нет
    Forced : Нет

    Аудио #5
    Идентификатор : 6
    Формат : DTS
    Формат/Информация : Digital Theater Systems
    Профиль формата : MA / Core
    Идентификатор кодека : A_DTS
    Продолжительность : 1 ч. 54 м.
    Вид битрейта : Переменный
    Битрейт : 2062 Кбит/сек / 1510 Кбит/сек
    Каналы : 6 каналов
    Расположение каналов : Front: L C R, Side: L R, LFE
    Частота : 48,0 КГц
    Битовая глубина : 16 бит
    Метод сжатия : Без потерь / Lossy
    Язык : English
    Default : Нет
    Forced : Нет

    Текст #1
    Идентификатор : 7
    Формат : UTF-8
    Идентификатор кодека : S_TEXT/UTF8
    Идентификатор кодека/Информация : UTF-8 Plain Text
    Язык : Russian
    Default : Нет
    Forced : Нет

    Текст #2
    Идентификатор : 8
    Формат : UTF-8
    Идентификатор кодека : S_TEXT/UTF8
    Идентификатор кодека/Информация : UTF-8 Plain Text
    Язык : English
    Default : Нет
    Forced : Нет

    Меню
    00:00:00.000 : en:Chapter 1
    00:10:50.566 : en:Chapter 2
    00:18:49.753 : en:Chapter 3
    00:28:00.553 : en:Chapter 4
    00:35:29.502 : en:Chapter 5
    00:44:44.264 : en:Chapter 6
    00:57:33.074 : en:Chapter 7
    01:07:34.508 : en:Chapter 8
    01:16:18.698 : en:Chapter 9
    01:27:09.265 : en:Chapter 10
    01:35:15.542 : en:Chapter 11
    01:47:03.542 : en:Chapter 12
    01:54:47.380 : en:Chapter 13



    Релиз группа NovaLan
    Автор сборки Sergei7721






    Релиз подготовил:


    Залил: Sergei7721
    Размер скачиваемого торрента: 18.04 GB (19375644138 Bytes)

    Шесть пуль / 6 Bullets (2012) BDRemux 1080p от NovaLan скачать через торрент бесплатно
    загрузка...
    Рейтинг →
     (голосов: 1, оценка 4/5, голосовать можно 1 раз )

    Другие торренты по теме:



      Комментарии (0):

      Информация

      Информация

        Посетители, находящиеся в группе Гости, не могут оставлять комментарии в данной новости.

        ↓ Меню



        ↓ Опрос

        А Вы добавили сайт в закладки?
        Да
        Не


        Top 10 за неделю (Фильмы)