.
Авторизация | Регистрация
Хочешь лучшие торренты? Добавь свой email!
Добавить
» » Папа-призрак / Ghost Dad (1990) DVDRip от New-Team скачать через торрент бесплатно




    Папа-призрак / Ghost Dad (1990) DVDRip от New-Team скачать через торрент бесплатно

    Опубликовал: Админ | Дата: 27-02-2015, 11:10 | Просмотров: 250


    Снималось в: США
    Создали в: SAH Enterprises, Universal Pictures
    Категория жанра: фэнтези, комедия, семейный
    Создали в: 1990
    Время просмотра: 01:26:42
    Перевод текста: Профессиональный (многоголосый, закадровый)
    Оригинальная аудиодорожка: нет
    Субтитры подготовлены: нет

    Главный режиссер: Сидни Пуатье / Sidney Poitier

    Актеры: Билл Косби, Кимберли Расселл, Денис Николас, Йен Баннен, Кристин Эберсоул, Бэрри Корбин, Салим Грант, Брук Фонтейн, Дэкин Мэтьюз, Дана Эшбрук...
    Сюжет: У вдовца Эллиота трое детей: Дэнни, Аманда и старшая дочь Дайен. Эллиот настоящий трудоголик, он работает с утра и до ночи, чтобы обеспечить семью, а воспитанием младших детей занимается Дайен. Каждый раз, когда дети просят отца сводить их в зоопарк или в кино, но отвечает: Завтра, и каждый раз откладывает запланированный поход на неопределенный срок. Он всегда живет будущим, не думая о настоящем. Например, он очень надеется на четверг: в этот день должна состояться крупная сделка, которая, как он думает, изменит его жизнь к лучшему. Но человек предполагает, а бог располагает. Накануне долгожданного дня Эллиот берет такси. Водитель оказывается помешанным сатанистом и, разглядев в лице Эллиота черты то ли ангела, то ли дьявола, на бешенной скорости сбрасывает машину с моста. Эллиот не погибает, а впадает в состояние комы. Теперь у Эллиота нет спасительного завтра, его душа располагает считанными часами для того, чтобы исправить ошибки, совершенные при жизни, закончить все финансовые дела и обеспечить материальное благосостояние своих детей. Итак, папочка — привидение возвращается домой. Он может спокойно проходить сквозь предметы и остается невидимкой при дневном свете, увидеть его можно только в затемненной комнате. Не теряя ни минуты, Эллиот начинает приводить в порядок финансовые дела семьи, но вскоре он начинает понимать, что для детей важнее всего на свете его любовь и его присутствие рядом с ними…



    Исходник: DVD9
    Тип релиза: DVDRip
    Контейнер: AVI

    Информация о видео: 640x480 (4:3), 23.976 fps, XviD ~ 1115 kbps avg, 0.151 bit/pixel
    Информация о звуке: 48 kHz, MP3 2.0, 128 kbps

    Раздача от:
    MediaInfo

    Общее
    Полное имя : Papa-prizrak.1990.DVDRip_New-team_by_AVP_Studio.avi
    Формат : AVI
    Формат/Информация : Audio Video Interleave
    Размер файла : 745 Мбайт
    Продолжительность : 1 ч. 23 м.
    Общий поток : 1253 Кбит/сек
    Программа кодирования : VirtualDubModRus 1.5.10.2 (build 2542/release)
    Библиотека кодирования : VirtualDubMod build 2542/release

    Видео
    Идентификатор : 0
    Формат : MPEG-4 Visual
    Профиль формата : Advanced Simple@L5
    Параметр BVOP формата : 1
    Параметр QPel формата : Нет
    Параметр GMC формата : Без точки перехода
    Параметр матрицы формата : Выборочная
    Идентификатор кодека : XVID
    Идентификатор кодека/Подсказка : XviD
    Продолжительность : 1 ч. 23 м.
    Битрейт : 1115 Кбит/сек
    Ширина : 640 пикселей
    Высота : 480 пикселей
    Соотношение сторон : 4:3
    Частота кадров : 23,976 кадра/сек
    Цветовое пространство : YUV
    Субдискретизация насыщенности : 4:2:0
    Битовая глубина : 8 бит
    Тип развёртки : Прогрессивная
    Метод сжатия : С потерями
    Бит/(Пиксели*Кадры) : 0.151
    Размер потока : 663 Мбайт (89%)
    Библиотека кодирования : XviD 73

    Аудио
    Идентификатор : 1
    Формат : MPEG Audio
    Версия формата : Version 1
    Профиль формата : Layer 3
    Идентификатор кодека : 55
    Идентификатор кодека/Подсказка : MP3
    Продолжительность : 1 ч. 23 м.
    Вид битрейта : Постоянный
    Битрейт : 128 Кбит/сек
    Каналы : 2 канала
    Частота : 48,0 КГц
    Метод сжатия : С потерями
    Размер потока : 76,1 Мбайт (10%)
    Выравнивание : Соединение по промежуткам
    Продолжительность промежутка : 42 мс. (1,00 видеокадр)
    Время предзагрузки промежутка : 504 мс.
    Библиотека кодирования : LAME3.99r
    Залил: AVPStudio
    Размер скачиваемого торрента: 744.75 MB (780931072 Bytes)


    Папа-призрак / Ghost Dad (1990) DVDRip от New-Team скачать через торрент бесплатно
    загрузка...
    Рейтинг →
     (голосов: 1, оценка 3/5, голосовать можно 1 раз )

    Другие торренты по теме:

  • Папа - призрак / Ghost Dad (1990) DVDRip | P, A


    • Комментарии (0):

      Информация

      Информация

        Посетители, находящиеся в группе Гости, не могут оставлять комментарии в данной новости.

        ↓ Меню



        ↓ Опрос

        А Вы добавили сайт в закладки?
        Да
        Не


        Top 10 за месяц (Фильмы)