.
Авторизация | Регистрация
» » Замкнутая цепь / Closed Circuit (2013) BDRemux 1080p от NovaLan скачать через торрент бесплатно




    Замкнутая цепь / Closed Circuit (2013) BDRemux 1080p от NovaLan скачать через торрент бесплатно

    Опубликовал: Админ | Дата: 27-02-2015, 11:10 | Просмотров: 172



    Русское название: Замкнутая цепь
    Русское название в мировом прокате: Closed Circuit
    Создали в: 2013
    Категория жанра: Триллер, драма, криминал, детектив
    Главный режиссер: Джон Краули
    Актеры: Эрик Бана, Ребекка Холл, Киаран Хайндс, Джим Бродбент, Кейт Лок, Кэтерин Пресс, Патрик Уорнер, Рики Никсон, Дэниэл Туит, Зора Бишоп
    Сюжет фильма:
    На повестке дня - борьба с терроризмом. Угроза очередного террористического выпада объединяет экс-любовников Клодию и Мартина, зачисленных в команду сопротивления злодеям. С риском для жизни они не только устраняют угрозу, но и проверяют, на фоне главных мировых достопримечательностей, угасли ли их романтические чувства или что-то ещё искрит.


    Снималось в: Канада, США, Darius Films Inc., Entertainment One, Sony Pictures, The Weinstein Company LLC
    Время просмотра: 01:36:01
    Перевод текста: Любительский одноголосый (Виноградов)

    Кодек для видео: H.264
    Качество фильма: Blu-Ray Remux 1080p
    Информация о видео: MPEG-4 AVC, 31994 Кбит/с, 1920x1080, 23.976 кадр/с
    Информация о звуке: Русский (AC3, 2 ch, 192 Кбит/с), английский (DTS-HD MA, 6 ch, 3611 Кбит/с)
    Субтитры: Русские (перевод Виноградов), английские

    Инфо-файл

    Полное имя : E:Раздачи_EClosed.Circuit.2013.BDRemux.1080p.NovaLan.mkv
    Формат : Matroska
    Версия формата : Version 4 / Version 2
    Размер файла : 23,9 Гбайт
    Продолжительность : 1 ч. 36 м.
    Режим общего битрейта : Переменный
    Общий поток : 35,6 Мбит/сек
    Название фильма : Closed Circuit 2013 - NovaLan
    Дата кодирования : UTC 2014-04-18 20:47:26
    Программа кодирования : mkvmerge v6.8.0 (;Theme for Great Cities;) 64bit built on Mar 2 2014 21:34:26
    Библиотека кодирования : libebml v1.3.0 libmatroska v1.4.1

    Видео
    Идентификатор : 1
    Формат : AVC
    Формат/Информация : Advanced Video Codec
    Профиль формата : High@L4.1
    Параметр CABAC формата : Да
    Параметр ReFrames формата : 4 кадра
    Параметр GOP формата : M=3, N=12
    Идентификатор кодека : V_MPEG4/ISO/AVC
    Продолжительность : 1 ч. 36 м.
    Вид битрейта : Переменный
    Битрейт : 33,1 Мбит/сек
    Максимальный битрейт : 35,0 Мбит/сек
    Ширина : 1920 пикселей
    Высота : 1080 пикселей
    Соотношение сторон : 16:9
    Частота кадров : 23,976 кадра/сек
    Цветовое пространство : YUV
    Субдискретизация насыщенности : 4:2:0
    Битовая глубина : 8 бит
    Тип развёртки : Прогрессивная
    Бит/(Пиксели*Кадры) : 0.666
    Размер потока : 22,2 Гбайт (93%)
    Заголовок : Closed Circuit 2013 - NovaLan
    Default : Да
    Forced : Нет

    Аудио #1
    Идентификатор : 2
    Формат : AC-3
    Формат/Информация : Audio Coding 3
    Расширение режима : CM (complete main)
    Параметр Endianness формата : Big
    Идентификатор кодека : A_AC3
    Продолжительность : 1 ч. 36 м.
    Вид битрейта : Постоянный
    Битрейт : 192 Кбит/сек
    Каналы : 2 канала
    Расположение каналов : Front: L R
    Частота : 48,0 КГц
    Битовая глубина : 16 бит
    Метод сжатия : С потерями
    Размер потока : 132 Мбайт (1%)
    Язык : Russian
    Default : Да
    Forced : Нет

    Аудио #2
    Идентификатор : 3
    Формат : DTS
    Формат/Информация : Digital Theater Systems
    Профиль формата : MA / Core
    Идентификатор кодека : A_DTS
    Продолжительность : 1 ч. 36 м.
    Вид битрейта : Переменный
    Битрейт : 1576 Кбит/сек / 1510 Кбит/сек
    Каналы : 6 каналов
    Расположение каналов : Front: L C R, Side: L R, LFE
    Частота : 48,0 КГц
    Битовая глубина : 24 бит
    Метод сжатия : Без потерь / Lossy
    Язык : English
    Default : Нет
    Forced : Нет

    Текст #1
    Идентификатор : 4
    Формат : UTF-8
    Идентификатор кодека : S_TEXT/UTF8
    Идентификатор кодека/Информация : UTF-8 Plain Text
    Язык : Russian
    Default : Нет
    Forced : Нет

    Текст #2
    Идентификатор : 5
    Формат : UTF-8
    Идентификатор кодека : S_TEXT/UTF8
    Идентификатор кодека/Информация : UTF-8 Plain Text
    Язык : English
    Default : Нет
    Forced : Нет

    Меню
    00:00:00.000 : en:Chapter 1
    00:05:04.595 : en:Chapter 2
    00:10:29.879 : en:Chapter 3
    00:15:28.844 : en:Chapter 4
    00:21:37.754 : en:Chapter 5
    00:25:39.829 : en:Chapter 6
    00:30:22.821 : en:Chapter 7
    00:34:12.592 : en:Chapter 8
    00:40:17.915 : en:Chapter 9
    00:45:10.416 : en:Chapter 10
    00:50:56.928 : en:Chapter 11
    00:54:49.119 : en:Chapter 12
    01:02:06.139 : en:Chapter 13
    01:05:46.984 : en:Chapter 14
    01:11:58.230 : en:Chapter 15
    01:16:25.038 : en:Chapter 16
    01:19:44.321 : en:Chapter 17
    01:22:34.449 : en:Chapter 18
    01:27:59.983 : en:Chapter 19
    01:31:54.967 : en:Chapter 20
    01:36:01.297 : en:Chapter 21



    Релиз группа NovaLan
    Автор сборки Sergei7721






    Релиз подготовил:


    Залил: Sergei7721
    Размер скачиваемого торрента: 23.86 GB (25621296852 Bytes)

    Замкнутая цепь / Closed Circuit (2013) BDRemux 1080p от NovaLan скачать через торрент бесплатно
    загрузка...
    Рейтинг →
     (голосов: 1, оценка 5/5, голосовать можно 1 раз )

    Другие торренты по теме:



      Комментарии (0):

      Информация

      Информация

        Посетители, находящиеся в группе Гости, не могут оставлять комментарии в данной новости.

        ↓ Меню



        ↓ Опрос

        А Вы добавили сайт в закладки?
        Да
        Не


        Top 10 за неделю (Фильмы)