.
Авторизация | Регистрация
» » Мотель / Сумка / Комната 13 / Человек с сумкой / The Bag Man / Motel Room 13 / Motel (2014) BDRip 1080p от CINEMANIA | L2 скачать через торрент бесплатно




    Мотель / Сумка / Комната 13 / Человек с сумкой / The Bag Man / Motel Room 13 / Motel (2014) BDRip 1080p от CINEMANIA | L2 скачать через торрент бесплатно

    Опубликовал: Админ | Дата: 27-02-2015, 11:10 | Просмотров: 148



    Детально о кино
    Русское название: Мотель / Сумка / Комната 13 / Человек с сумкой
    Русское название в мировом прокате: The Bag Man / Motel Room 13 / Motel
    Создали в: 2014
    Категория жанра: триллер, криминал
    Главный режиссер: Дэвид Гровик
    Актеры: Роберт Де Ниро, Джон Кьюсак, Ребекка Да Коста, Криспин Гловер, Доминик Пёрселл, Стикки Фингаз, Мартин Клебба, Дэвид Шамбрис, Чезз Менендес, Йен Маклафлин

    Сюжет фильма:
    Наемный убийца Джек Стаффорд получает несложное задание: приехать в заштатный мотель в 300 милях от Питтсбурга, получить сумку с таинственным содержимым и оставаться в номере, пока за грузом не приедут. Условие одно: ни при каких обстоятельствах не заглядывать внутрь сумки. Но поручение оказывается простым лишь на первый взгляд. Вскоре киллер понимает, что за доверенным ему предметом охотятся коррумпированные агенты ФБР, продажные полицейские, провинциальные гангстеры и кровожадный карлик-цыган из Сербии. И каждый хочет всадить в Джека пулю. Число жертв растет на глазах, и дожить до рассвета смогут далеко не все постояльцы мотеля.



    Снималось в: США
    Время просмотра: 01:48:54
    Тип перевода: Любительское (двухголосое) DeadSno den904
    работа со звуком Гуннлауг

    Файл
    Тип видео: MKV
    Качество фильма: BDRip 1080p PHD
    Информация о видео: 10814 kb/s, 1920x796
    Информация о звуке: Russian: AC3, 448 kb/s (6 ch) / English: DTS, 1510 kb/s (6 ch)
    Субтитры: Russian Janetta, English
    Дополнительно: Сохранены оригинальные чаптеры как на Blu-Ray
    Размер скачиваемого торрента: 9.92 GB
    Скачать: Сэмпл

    Релиз группы:




    NFO
    Общее
    The.Bag.Man.2014.Blu.Ray.1080p.CINEMANIA.mkv
    Формат : Matroska
    Версия формата : Version 4 / Version 2
    Размер файла : 9,92 Гбайт
    Продолжительность : 1 ч. 48 м.
    Общий поток : 13,1 Мбит/сек
    Название фильма : Release Group CINEMANIA
    Дата кодирования : UTC 2014-04-18 20:49:50
    Программа кодирования : mkvmerge v6.8.0 (;Theme for Great Cities;) 64bit built on Mar 2 2014 21:34:26
    Библиотека кодирования : libebml v1.3.0 libmatroska v1.4.1

    Видео
    Идентификатор : 1
    Формат : AVC
    Формат/Информация : Advanced Video Codec
    Профиль формата : High@L4.1
    Параметр CABAC формата : Да
    Параметр ReFrames формата : 5 кадров
    Идентификатор кодека : V_MPEG4/ISO/AVC
    Продолжительность : 1 ч. 48 м.
    Битрейт : 10,8 Мбит/сек
    Ширина : 1920 пикселей
    Высота : 796 пикселей
    Соотношение сторон : 2,40:1
    Режим частоты кадров : Постоянный
    Частота кадров : 23,976 кадра/сек
    Цветовое пространство : YUV
    Субдискретизация насыщенности : 4:2:0
    Битовая глубина : 8 бит
    Тип развёртки : Прогрессивная
    Бит/(Пиксели*Кадры) : 0.296
    Размер потока : 8,24 Гбайт (83%)
    Заголовок : Release Group CINEMANIA
    Язык : English
    Default : Да
    Forced : Нет

    Аудио #1
    Идентификатор : 2
    Формат : AC-3
    Формат/Информация : Audio Coding 3
    Расширение режима : CM (complete main)
    Параметр Endianness формата : Big
    Идентификатор кодека : A_AC3
    Продолжительность : 1 ч. 48 м.
    Вид битрейта : Постоянный
    Битрейт : 448 Кбит/сек
    Каналы : 6 каналов
    Расположение каналов : Front: L C R, Side: L R, LFE
    Частота : 48,0 КГц
    Битовая глубина : 16 бит
    Метод сжатия : С потерями
    Размер потока : 349 Мбайт (3%)
    Заголовок : Влад и Снежинка
    Язык : Russian
    Default : Да
    Forced : Да

    Аудио #2
    Идентификатор : 3
    Формат : DTS
    Формат/Информация : Digital Theater Systems
    Режим : 16
    Параметр Endianness формата : Big
    Идентификатор кодека : A_DTS
    Продолжительность : 1 ч. 48 м.
    Вид битрейта : Постоянный
    Битрейт : 1509 Кбит/сек
    Каналы : 6 каналов
    Расположение каналов : Front: L C R, Side: L R, LFE
    Частота : 48,0 КГц
    Битовая глубина : 24 бит
    Метод сжатия : С потерями
    Размер потока : 1,15 Гбайт (12%)
    Язык : English
    Default : Нет
    Forced : Нет

    Текст #1
    Идентификатор : 4
    Формат : UTF-8
    Идентификатор кодека : S_TEXT/UTF8
    Идентификатор кодека/Информация : UTF-8 Plain Text
    Заголовок : Janetta
    Язык : Russian
    Default : Нет
    Forced : Нет

    Текст #2
    Идентификатор : 5
    Формат : UTF-8
    Идентификатор кодека : S_TEXT/UTF8
    Идентификатор кодека/Информация : UTF-8 Plain Text
    Язык : English
    Default : Нет
    Forced : Нет

    Меню
    00:00:00.000 : en:00:00:00.000
    00:05:34.501 : en:00:05:34.501
    00:10:00.850 : en:00:10:00.850
    00:16:30.156 : en:00:16:30.156
    00:21:09.643 : en:00:21:09.643
    00:26:34.301 : en:00:26:34.301
    00:31:43.318 : en:00:31:43.318
    00:37:17.902 : en:00:37:17.902
    00:42:09.318 : en:00:42:09.318
    00:46:11.268 : en:00:46:11.268
    00:52:23.599 : en:00:52:23.599
    00:57:02.044 : en:00:57:02.044
    01:02:28.453 : en:01:02:28.453
    01:07:49.482 : en:01:07:49.482
    01:12:37.061 : en:01:12:37.061
    01:16:46.727 : en:01:16:46.727
    01:24:15.676 : en:01:24:15.676
    01:30:44.105 : en:01:30:44.105
    01:36:37.083 : en:01:36:37.083
    01:40:53.965 : en:01:40:53.965
    01:42:57.713 : en:01:42:57.713

    Залил: DGEKIGAN
    Размер скачиваемого торрента: 9.92 GB (10652732874 Bytes)

    Мотель / Сумка / Комната 13 / Человек с сумкой / The Bag Man / Motel Room 13 / Motel (2014) BDRip 1080p от CINEMANIA | L2 скачать через торрент бесплатно
    загрузка...
    Рейтинг →
     (голосов: 1, оценка 3/5, голосовать можно 1 раз )

    Другие торренты по теме:

  • Молчаливый мотель / No Tell Motel (2012) WEB-DLRip | L1 торрент скачать бесплатно
  • Мотель Бейтса / Bates Motel (2013) HDTVRip 720р | BaibaKo торрент скачать бесплатно
  • Мотель Бэйтс / Bates Motel (2013) WEB-DL 720p торрент скачать бесплатно
  • Джеймс Хедли Чейз - Дьявольский мотель (2013) MP3 торрент скачать бесплатно
  • Адский мотель / Мотель Ад / Motel Hell (1980) BDRip-AVC от olegek70 | A торрент скачать бесплатно
  • Добро пожаловать в мотель Бейтса / The Bates Haunting (2012) WEB-DLRip | L2 торрент скачать бесплатно
  • Мотель Бейтса (Мотель Бэйтс) / Bates Motel (2013) WEB-DL 1080p от MediaClub торрент скачать бесплатно
  • Мотель Бейтса (Мотель Бэйтс) / Bates Motel (2013) WEB-DL 720p от MediaClub торрент скачать бесплатно


    • Комментарии (0):

      Информация

      Информация

        Посетители, находящиеся в группе Гости, не могут оставлять комментарии в данной новости.

        ↓ Меню



        ↓ Опрос

        А Вы добавили сайт в закладки?
        Да
        Не


        Top 10 за неделю (Фильмы)