.
Авторизация | Регистрация
Хочешь лучшие торренты? Добавь свой email!
Добавить
» » Красиво украсть / The Art of the Steal (2013) BDRemux 1080p от NovaLan скачать через торрент бесплатно




    Красиво украсть / The Art of the Steal (2013) BDRemux 1080p от NovaLan скачать через торрент бесплатно

    Опубликовал: Админ | Дата: 27-02-2015, 11:10 | Просмотров: 259



    Русское название: Красиво украсть (Черные метки)
    Русское название в мировом прокате: The Art of the Steal
    Создали в: 2013
    Категория жанра: Комедия, криминал
    Главный режиссер: Джонатан Собол
    Актеры: Курт Расселл, Джей Барушель, Мэтт Диллон, Крис Диамантополос, Кеннет Уэлш, Джейсон Джонс, Теренс Стэмп, Кэтрин Уинник, Девон Бостик, Эль Даунс
    Сюжет фильма:
    Фильм рассказывает о байкере-сорвиголове, специализирующемся на краже произведений искусства. Он уже было собрался завязать с преступным прошлым, но все-таки не находит в себе силы отказаться от осуществления еще одной очень заманчивой кражи вместе со своим неблагонадежным братцем. Все в итоге идет наперекосяк, поскольку оказывается, что у каждого из братьев свой план.


    Снималось в: Канада, США, Darius Films Inc., Entertainment One, Sony Pictures, The Weinstein Company LLC
    Время просмотра: 01:30:14
    Перевод текста: Авторский одноголосый (Вадим Белов) / Любительский одноголосый (qwerty)

    Кодек для видео: H.264
    Качество фильма: Blu-Ray Remux 1080p
    Информация о видео: MPEG-4 AVC, 22643 Кбит/с, 1920x1080, 23.976 кадр/с
    Информация о звуке: Русский (AC3, 6 ch, 384 Кбит/с), (AC3, 2 ch, 192 Кбит/с), английский (DTS-HD MA, 6 ch, 3581 Кбит/с), (AC3, 2 ch, 192 Кбит/с)
    Субтитры: Английские

    Инфо-файл

    Полное имя : E:Раздачи_EThe.Art.of.the.Steal.2013.BDRemux.1080p.NovaLan.mkv
    Формат : Matroska
    Версия формата : Version 4 / Version 2
    Размер файла : 17,0 Гбайт
    Продолжительность : 1 ч. 30 м.
    Режим общего битрейта : Переменный
    Общий поток : 27,0 Мбит/сек
    Название фильма : The Art of the Steal 2013 - NovaLan
    Дата кодирования : UTC 2014-04-18 19:04:10
    Программа кодирования : mkvmerge v6.8.0 (;Theme for Great Cities;) 64bit built on Mar 2 2014 21:34:26
    Библиотека кодирования : libebml v1.3.0 libmatroska v1.4.1

    Видео
    Идентификатор : 1
    Формат : AVC
    Формат/Информация : Advanced Video Codec
    Профиль формата : High@L4.1
    Параметр CABAC формата : Да
    Параметр ReFrames формата : 2 кадра
    Идентификатор кодека : V_MPEG4/ISO/AVC
    Продолжительность : 1 ч. 30 м.
    Вид битрейта : Переменный
    Битрейт : 24,1 Мбит/сек
    Ширина : 1920 пикселей
    Высота : 1080 пикселей
    Соотношение сторон : 16:9
    Частота кадров : 23,976 кадра/сек
    Цветовое пространство : YUV
    Субдискретизация насыщенности : 4:2:0
    Битовая глубина : 8 бит
    Тип развёртки : Прогрессивная
    Бит/(Пиксели*Кадры) : 0.485
    Размер потока : 15,2 Гбайт (89%)
    Заголовок : The Art of the Steal 2013 - NovaLan
    Default : Да
    Forced : Нет

    Аудио #1
    Идентификатор : 2
    Формат : AC-3
    Формат/Информация : Audio Coding 3
    Расширение режима : CM (complete main)
    Параметр Endianness формата : Big
    Идентификатор кодека : A_AC3
    Продолжительность : 1 ч. 30 м.
    Вид битрейта : Постоянный
    Битрейт : 384 Кбит/сек
    Каналы : 6 каналов
    Расположение каналов : Front: L C R, Side: L R, LFE
    Частота : 48,0 КГц
    Битовая глубина : 16 бит
    Метод сжатия : С потерями
    Размер потока : 248 Мбайт (1%)
    Язык : Russian
    Default : Да
    Forced : Нет

    Аудио #2
    Идентификатор : 3
    Формат : AC-3
    Формат/Информация : Audio Coding 3
    Профиль формата : Dolby Digital
    Расширение режима : CM (complete main)
    Параметр Endianness формата : Big
    Идентификатор кодека : A_AC3
    Продолжительность : 1 ч. 30 м.
    Вид битрейта : Постоянный
    Битрейт : 192 Кбит/сек
    Каналы : 2 канала
    Расположение каналов : Front: L R
    Частота : 48,0 КГц
    Битовая глубина : 16 бит
    Метод сжатия : С потерями
    Размер потока : 124 Мбайт (1%)
    Язык : Russian
    Default : Нет
    Forced : Нет

    Аудио #3
    Идентификатор : 4
    Формат : DTS
    Формат/Информация : Digital Theater Systems
    Профиль формата : MA / Core
    Идентификатор кодека : A_DTS
    Продолжительность : 1 ч. 30 м.
    Вид битрейта : Переменный
    Битрейт : 1561 Кбит/сек / 1510 Кбит/сек
    Каналы : 6 каналов
    Расположение каналов : Front: L C R, Side: L R, LFE
    Частота : 48,0 КГц
    Битовая глубина : 24 бит
    Метод сжатия : Без потерь / Lossy
    Язык : English
    Default : Нет
    Forced : Нет

    Аудио #4
    Идентификатор : 5
    Формат : AC-3
    Формат/Информация : Audio Coding 3
    Расширение режима : CM (complete main)
    Параметр Endianness формата : Big
    Идентификатор кодека : A_AC3
    Продолжительность : 1 ч. 30 м.
    Вид битрейта : Постоянный
    Битрейт : 192 Кбит/сек
    Каналы : 2 канала
    Расположение каналов : Front: L R
    Частота : 48,0 КГц
    Битовая глубина : 16 бит
    Метод сжатия : С потерями
    Размер потока : 124 Мбайт (1%)
    Язык : English
    Default : Нет
    Forced : Нет

    Текст
    Идентификатор : 6
    Формат : UTF-8
    Идентификатор кодека : S_TEXT/UTF8
    Идентификатор кодека/Информация : UTF-8 Plain Text
    Язык : English
    Default : Нет
    Forced : Нет

    Меню
    00:00:00.000 : en:Chapter 1
    00:05:06.347 : en:Chapter 2
    00:10:32.256 : en:Chapter 3
    00:17:03.480 : en:Chapter 4
    00:21:52.352 : en:Chapter 5
    00:27:33.068 : en:Chapter 6
    00:33:23.793 : en:Chapter 7
    00:41:40.539 : en:Chapter 8
    00:46:21.528 : en:Chapter 9
    00:50:57.429 : en:Chapter 10
    00:56:38.728 : en:Chapter 11
    01:02:27.827 : en:Chapter 12
    01:07:25.374 : en:Chapter 13
    01:12:30.179 : en:Chapter 14
    01:18:13.897 : en:Chapter 15
    01:23:54.070 : en:Chapter 16
    01:30:13.783 : en:Chapter 17



    Релиз группа NovaLan
    Автор сборки Sergei7721






    Релиз подготовил:


    Залил: Sergei7721
    Размер скачиваемого торрента: 17.02 GB (18269974621 Bytes)

    Красиво украсть / The Art of the Steal (2013) BDRemux 1080p от NovaLan скачать через торрент бесплатно
    загрузка...
    Рейтинг →
     (голосов: 1, оценка 4/5, голосовать можно 1 раз )

    Другие торренты по теме:

  • Красиво украсть / Черные метки / The Art of the Steal (2013) BDRip-AVC от MediaClub | A
  • Красиво украсть / Черные метки / The Art of the Steal (2013) Blu-ray 1080p от NovaLan скачать через торрент бесплатно
  • Черные метки / Красиво украсть / The Art of the Steal (2013) HDRip-AVC | Лицензия скачать через торрент бесплатно


    • Комментарии (0):

      Информация

      Информация

        Посетители, находящиеся в группе Гости, не могут оставлять комментарии в данной новости.

        ↓ Меню



        ↓ Опрос

        А Вы добавили сайт в закладки?
        Да
        Не


        Top 10 за месяц (Фильмы)