.
Авторизация | Регистрация
» » Заполнить пустоту / Lemale et hahalal / Fill the Void (2012) BDRip 1080p от CINEMANIA | A скачать через торрент бесплатно




    Заполнить пустоту / Lemale et hahalal / Fill the Void (2012) BDRip 1080p от CINEMANIA | A скачать через торрент бесплатно

    Опубликовал: Админ | Дата: 27-02-2015, 11:10 | Просмотров: 206



    Детально о кино
    Русское название: Заполнить пустоту
    Русское название в мировом прокате: Lemale et ha;halal / Fill the Void
    Создали в: 2012
    Категория жанра: драма
    Главный режиссер: Рама Бурштейн
    Актеры: Хадас Ярон, Иифтах Кляйн, Ирит Шелег, Шайим Шарир, Разия Израэли, Хила Фельдман, Ренана Раз, Яэль Таль, Майкл Дэвид Вейгл, Идо Сэмюэл

    Сюжет фильма:
    Заполнить пустоту рассказывает историю ортодоксальной хасидской семьи из Тель-Авива. Восемнадцатилетняя Шира - младшая дочь в семье. Ее собираются выдать замуж за подающего надежды юношу из достойного рода. Для Ширы это стало бы исполнением всех желаний, но в Пурим при родах умирает ее старшая сестра Эстер. Из-за траура в семье свадьбу Ширы решают отложить. Все меняется, когда Йохай, муж Эстер, получает предложение жениться на одной вдове из Бельгии. Йохай чувствует, что еще слишком мало времени прошло со смерти жены, но также понимает, что рано или поздно ему придется всерьез задуматься о новом браке. Когда мать узнает, что Йохай может покинуть страну вместе с ее единственным внуком, она предлагает вдовцу жениться на Шире. Девушка оказывается перед жестоким выбором между долгом, традицией и своими чувствами.



    Снималось в: Израиль
    Время просмотра: 01:31:43
    Тип перевода: Авторское (одноголосое) М.Чадов

    Файл
    Тип видео: MKV
    Качество фильма: BDRip 1080p PHD
    Информация о видео: 10200 kb/s, 1920x816
    Информация о звуке: Russian: AC3, 384 kb/s (6 ch) / Hebrew: DTS, 1510 kb/s (6 ch)
    Субтитры: Russian Spartak2005, English
    Дополнительно: Сохранены оригинальные чаптеры как на Blu-Ray
    Размер скачиваемого торрента: 7.90 GB
    Скачать: Сэмпл

    Релиз группы:




    NFO
    Общее
    Fill.The.Void.2012.Blu.Ray.1080p.CINEMANIA.mkv
    Формат : Matroska
    Версия формата : Version 4 / Version 2
    Размер файла : 7,90 Гбайт
    Продолжительность : 1 ч. 31 м.
    Общий поток : 12,3 Мбит/сек
    Название фильма : Release Group CINEMANIA
    Дата кодирования : UTC 2014-04-17 20:36:44
    Программа кодирования : mkvmerge v6.8.0 (;Theme for Great Cities;) 64bit built on Mar 2 2014 21:34:26
    Библиотека кодирования : libebml v1.3.0 libmatroska v1.4.1

    Видео
    Идентификатор : 1
    Формат : AVC
    Формат/Информация : Advanced Video Codec
    Профиль формата : High@L4.1
    Параметр CABAC формата : Да
    Параметр ReFrames формата : 5 кадров
    Идентификатор кодека : V_MPEG4/ISO/AVC
    Продолжительность : 1 ч. 31 м.
    Битрейт : 10,2 Мбит/сек
    Ширина : 1920 пикселей
    Высота : 816 пикселей
    Соотношение сторон : 2,35:1
    Режим частоты кадров : Постоянный
    Частота кадров : 24,000 кадра/сек
    Цветовое пространство : YUV
    Субдискретизация насыщенности : 4:2:0
    Битовая глубина : 8 бит
    Тип развёртки : Прогрессивная
    Бит/(Пиксели*Кадры) : 0.271
    Размер потока : 6,53 Гбайт (83%)
    Заголовок : Release Group CINEMANIA
    Язык : English
    Default : Да
    Forced : Нет

    Аудио #1
    Идентификатор : 2
    Формат : AC-3
    Формат/Информация : Audio Coding 3
    Расширение режима : CM (complete main)
    Параметр Endianness формата : Big
    Идентификатор кодека : A_AC3
    Продолжительность : 1 ч. 31 м.
    Вид битрейта : Постоянный
    Битрейт : 384 Кбит/сек
    Каналы : 6 каналов
    Расположение каналов : Front: L C R, Side: L R, LFE
    Частота : 48,0 КГц
    Битовая глубина : 16 бит
    Метод сжатия : С потерями
    Размер потока : 252 Мбайт (3%)
    Заголовок : М.Чадов
    Язык : Russian
    Default : Да
    Forced : Да

    Аудио #2
    Идентификатор : 3
    Формат : DTS
    Формат/Информация : Digital Theater Systems
    Режим : 16
    Параметр Endianness формата : Big
    Идентификатор кодека : A_DTS
    Продолжительность : 1 ч. 31 м.
    Вид битрейта : Постоянный
    Битрейт : 1509 Кбит/сек
    Каналы : 6 каналов
    Расположение каналов : Front: L C R, Side: L R, LFE
    Частота : 48,0 КГц
    Битовая глубина : 24 бит
    Метод сжатия : С потерями
    Размер потока : 990 Мбайт (12%)
    Язык : Hebrew
    Default : Нет
    Forced : Нет

    Текст #1
    Идентификатор : 4
    Формат : UTF-8
    Идентификатор кодека : S_TEXT/UTF8
    Идентификатор кодека/Информация : UTF-8 Plain Text
    Заголовок : Spartak2005
    Язык : Russian
    Default : Нет
    Forced : Нет

    Текст #2
    Идентификатор : 5
    Формат : UTF-8
    Идентификатор кодека : S_TEXT/UTF8
    Идентификатор кодека/Информация : UTF-8 Plain Text
    Язык : English
    Default : Нет
    Forced : Нет

    Меню
    00:00:00.000 : en:00:00:00.000
    00:04:54.750 : en:00:04:54.750
    00:11:23.500 : en:00:11:23.500
    00:19:34.667 : en:00:19:34.667
    00:27:33.292 : en:00:27:33.292
    00:35:04.750 : en:00:35:04.750
    00:43:16.167 : en:00:43:16.167
    00:56:05.833 : en:00:56:05.833
    01:01:21.750 : en:01:01:21.750
    01:09:10.375 : en:01:09:10.375
    01:20:14.833 : en:01:20:14.833
    01:26:13.917 : en:01:26:13.917

    Залил: DGEKIGAN
    Размер скачиваемого торрента: 7.90 GB (8478493070 Bytes)

    Заполнить пустоту / Lemale et hahalal / Fill the Void (2012) BDRip 1080p от CINEMANIA | A скачать через торрент бесплатно
    загрузка...
    Рейтинг →
     (голосов: 1, оценка 4/5, голосовать можно 1 раз )

    Другие торренты по теме:

  • Заполнить пустоту / Lemale et hahalal / Fill the Void (2012) BDRip 720p от CINEMANIA | A скачать через торрент бесплатно


    • Комментарии (0):

      Информация

      Информация

        Посетители, находящиеся в группе Гости, не могут оставлять комментарии в данной новости.

        ↓ Меню



        ↓ Опрос

        А Вы добавили сайт в закладки?
        Да
        Не


        Top 10 за неделю (Фильмы)