.
Авторизация | Регистрация
» » Совместная поездка / Ride Along (2013) BDRip-AVC | iPhone | P2 торрент скачать бесплатно




    Совместная поездка / Ride Along (2013) BDRip-AVC | iPhone | P2 торрент скачать бесплатно

    Опубликовал: Админ | Дата: 27-02-2015, 11:10 | Просмотров: 241



    Совместная поездка / Ride Along (2013) BDRip-AVC | iPhone | P2

    Русское название: Совместная поездка
    Русское название в мировом прокате: Ride Along
    Создали в: 2013
    Категория жанра: боевик, комедия
    Главный режиссер: Тим Стори
    Актеры: Айс Кьюб, Кевин Харт, Джон Легуизамо, Брюс МакГилл, Тика Самптер, Брайан Коллен, Лоренс Фишбёрн, Драгош Букур, Гари Оуэн, Джейкоб Латимор

    Сюжет фильма:
    Охранник Бен отправляется вместе со своим шурином Джеймсом в патруль по Атланте, чтобы доказать, что он достоин жениться на Анджеле, сестре Джеймса.



    Снималось в: США
    Киностудия: Cube Vision, LBI Entertainment, Rainforest Films

    Время просмотра: 01:39:39
    Перевод текста: Русский профессиональный двухголосый закадровый

    Файл
    Кодек для видео: H.264
    Качество фильма: BDRip-AVC 480p
    Информация о видео: 640x356@852x356 (2.40:1) at 23.976 fps, AVC at 1160 kbps
    Информация о звуке:
    1: АAС 2.0 128 kbps - Русский профессиональный двухголосый закадровый
    2: АAС 2.0 128 kbps - Английский
    Субтитры: отсутствуют

    MI

    General
    Complete name : C:CREATE264mod1outRide.Along.2013.480p.P2.m4v
    Format : MPEG-4
    Codec ID : M4V
    File size : 1 020 MiB
    Duration : 1h 39mn
    Overall bit rate mode : Variable
    Overall bit rate : 1 432 Kbps
    Movie name : Совместная поездка
    Performer : Tim Story
    Genre : Action Adventure
    ContentType : Short Film
    Deion : Охранник Бен отправляется вместе со своим шурином Джеймсом на сутки патрулирования по Атланте, чтобы доказать, что он достоин жениться на Анджеле, сестре Джеймса.
    Recorded date : UTC 2014-01-17 08:00:00
    Encoded date : UTC 2014-04-19 19:52:00
    Tagged date : UTC 2014-04-19 19:53:51
    Copyright : Cube Vision, LBI Entertainment, Rainforest Films
    Cover : Yes
    Comment : Propose to this cop;s sister? Rookie mistake
    ContentRating : mpaa|PG-13|300|

    Title/Sort : Ride Along
    LongDeion : Охранник Бен отправляется вместе со своим шурином Джеймсом на сутки патрулирования по Атланте, чтобы доказать, что он достоин жениться на Анджеле, сестре Джеймса.
    AppleStoreCatalogID : 786325887
    Vendor : Apple:vendor_id:2013-455181

    Video
    ID : 1
    Format : AVC
    Format/Info : Advanced Video Codec
    Format profile : High@L4.1
    Format settings, CABAC : Yes
    Format settings, ReFrames : 10 frames
    Codec ID : avc1
    Codec ID/Info : Advanced Video Coding
    Duration : 1h 39mn
    Bit rate : 1 163 Kbps
    Maximum bit rate : 11.8 Mbps
    Width : 640 pixels
    Height : 356 pixels
    Display aspect ratio : 2.40:1
    Frame rate mode : Constant
    Frame rate : 23.976 fps
    Color space : YUV
    Chroma subsampling : 4:2:0
    Bit depth : 8 bits
    Scan type : Progressive
    Bits/(Pixel*Frame) : 0.213
    Stream size : 829 MiB (81%)
    Title : Ride Along _2013_
    Language : English
    Encoded date : UTC 2014-04-19 19:52:00
    Tagged date : UTC 2014-04-19 19:52:16
    Matrix coefficients : BT.709

    Audio #1
    ID : 2
    Format : AAC
    Format/Info : Advanced Audio Codec
    Format profile : LC
    Codec ID : 40
    Duration : 1h 39mn
    Bit rate mode : Variable
    Bit rate : 123 Kbps
    Maximum bit rate : 179 Kbps
    Channel(s) : 2 channels
    Channel positions : Front: L R
    Sampling rate : 48.0 KHz
    Compression mode : Lossy
    Stream size : 87.6 MiB (9%)
    Title : DVO
    Language : Russian
    Encoded date : UTC 2014-04-19 19:43:23
    Tagged date : UTC 2014-04-19 19:52:16

    Audio #2
    ID : 3
    Format : AAC
    Format/Info : Advanced Audio Codec
    Format profile : LC
    Codec ID : 40
    Duration : 1h 39mn
    Bit rate mode : Variable
    Bit rate : 128 Kbps
    Maximum bit rate : 181 Kbps
    Channel(s) : 2 channels
    Channel positions : Front: L R
    Sampling rate : 48.0 KHz
    Compression mode : Lossy
    Stream size : 91.0 MiB (9%)
    Title : Original
    Language : English
    Encoded date : UTC 2014-04-19 19:47:50
    Tagged date : UTC 2014-04-19 19:52:16

    Menu
    ID : 4
    Codec ID : text
    Duration : 1h 39mn
    Encoded date : UTC 2014-04-19 19:52:42
    Tagged date : UTC 2014-04-19 19:52:42
    Bit rate mode : CBR

    iTunes tags


    Sort Name: Ride Along
    XID: Apple:vendor_id:2013-455181
    Content ID: 786325887
    Copyright: Cube Vision, LBI Entertainment, Rainforest Films
    ScreenWriters: Грег Кулидж, Джейсон Манцукас, Фил Хэй
    Producers: Мэтт Альварес, Ларри Брэзнер, Айс Кьюб
    Director: Тим Стори
    Cast: Айс Кьюб, Кевин Харт, Джон Легуизамо, Брюс МакГилл, Тика Самптер, Брайан Коллен, Лоренс Фишбёрн, Драгош Букур, Гари Оуэн, Джейкоб Латимор // Ice Cube (James), Kevin Hart (Ben), John Leguizamo, Tika Sumpter (Angela), Laurence Fishburne, Bruce McGill, Bryan Callen, Gary Weeks (Dr. Cowan), Gary Owen, Jay Pharaoh, Jasmine Burke (Gina), David Banner (Pawnshop Jay), Aaron Saxton (Roberto), Lucius Baston
    Rating: PG-13
    Long Deion: Охранник Бен отправляется вместе со своим шурином Джеймсом на сутки патрулирования по Атланте, чтобы доказать, что он достоин жениться на Анджеле, сестре Джеймса.
    Deion: Охранник Бен отправляется вместе со своим шурином Джеймсом на сутки патрулирования по Атланте, чтобы доказать, что он достоин жениться на Анджеле, сестре Джеймса.
    Release Date: 2014-01-17T08:00:00Z
    Genre: Action Adventure
    Artist: Tim Story
    Name: Совместная поездка
    Comments: Propose to this cop;s sister? Rookie mistake

    x264

    x264 info: frame I:1571 Avg QP:14.53 size: 47311
    x264 info: frame P:31992 Avg QP:19.16 size: 13730
    x264 info: frame B:109789 Avg QP:23.72 size: 3237
    x264 info: consecutive B-frames: 2.4% 2.4% 9.1% 25.6% 22.1% 27.1% 6.0% 2.5% 1.2% 0.5% 0.3% 0.3% 0.1% 0.2% 0.2%
    x264 info: mb I I16..4: 11.3% 41.6% 47.1%
    x264 info: mb P I16..4: 0.9% 6.6% 3.6% P16..4: 27.9% 32.5% 14.5% 5.6% 1.6% skip: 6.8%
    x264 info: mb B I16..4: 0.1% 0.7% 0.5% B16..8: 33.7% 16.3% 3.0% direct: 3.5% skip:42.1% L0:40.1% L1:44.0% BI:15.9%
    x264 info: 8x8 transform intra:54.4% inter:39.5%
    x264 info: coded y,uvDC,uvAC intra: 82.7% 74.7% 49.4% inter: 17.0% 10.3% 5.0%
    x264 info: i16 v,h,dc,p: 17% 16% 10% 56%
    x264 info: i8 v,h,dc,ddl,ddr,vr,hd,vl,hu: 16% 8% 4% 9% 12% 15% 11% 14% 12%
    x264 info: i4 v,h,dc,ddl,ddr,vr,hd,vl,hu: 30% 8% 5% 8% 10% 11% 8% 10% 9%
    x264 info: i8c dc,h,v,p: 31% 27% 25% 17%
    x264 info: Weighted P-Frames: Y:2.9% UV:1.7%
    x264 info: ref P L0: 57.9% 10.0% 14.0% 5.8% 3.9% 2.9% 2.3% 1.3% 1.1% 1.0% 0.1% 0.0%
    x264 info: ref B L0: 82.8% 8.0% 3.8% 1.9% 1.2% 0.9% 0.8% 0.4% 0.2%
    x264 info: ref B L1: 93.4% 6.6%
    x264 info: kb/s:1162.73



    full-size screenshots






    Залил: gekka
    Размер скачиваемого торрента: 1.00 GB (1069879492 Bytes)

    Совместная поездка / Ride Along (2013) BDRip-AVC | iPhone | P2 торрент скачать бесплатно
    загрузка...
    Рейтинг →
     (голосов: 1, оценка 3/5, голосовать можно 1 раз )

    Другие торренты по теме:

  • Совместная поездка / Ride Along (2014) WEBRip от GOLIAF скачать через торрент бесплатно
  • Совместная поездка / Ride Along (2014) WEB-DLRip | L1 торрент скачать бесплатно
  • Совместная поездка / Ride Along (2014) WEB-DL 720p | L1 торрент скачать бесплатно
  • Совместная поездка / Ride Along (2014) WEB-DLRip-AVC | L1 скачать через торрент бесплатно
  • Совместная поездка / Ride Along (2014) BDRip 1080p от CINEMANIA | L1 скачать через торрент бесплатно
  • Совместная поездка / Ride Along (2014) BDRip 720p от CINEMANIA | L1 скачать через торрент бесплатно
  • Совместная поездка / Ride Along (2014) HDRip | L1 скачать через торрент бесплатно
  • Совместная поездка / Ride Along (2014) BDRip 1080p | L1 скачать через торрент бесплатно


    • Комментарии (0):

      Информация

      Информация

        Посетители, находящиеся в группе Гости, не могут оставлять комментарии в данной новости.

        ↓ Меню



        ↓ Опрос

        А Вы добавили сайт в закладки?
        Да
        Не


        Top 10 за неделю (Фильмы)