.
Авторизация | Регистрация
» » Университетский вампир / Vamp U (2013) BDRip-AVC | iPhone | P торрент скачать бесплатно




    Университетский вампир / Vamp U (2013) BDRip-AVC | iPhone | P торрент скачать бесплатно

    Опубликовал: Админ | Дата: 27-02-2015, 11:10 | Просмотров: 235



    Университетский вампир / Vamp U (2013) BDRip-AVC | iPhone | P

    Русское название: Университетский вампир
    Русское название в мировом прокате: Vamp U
    Создали в: 2013
    Категория жанра: ужасы, боевик, комедия
    Главный режиссер: Мэтт Есперсен, Маклейн Нельсон
    Актеры: Джули Гонсало, Адам Джонсон, Алексис Нэп, Гэри Коул, Маклейн Нельсон, Мэтт Маттсон, Барт Джонсон, Клэр Нидерпрюэм, Фрэнки Леванджи, Джейк Ван Вагонер

    Сюжет фильма:
    300 лет назад вампир Уэйн Грецки утратил способность вампирствовать после потери любви всей жизни. В наши дни он профессор колледжа, однако вампирическое проклятие продолжает преследовать его.



    Снималось в: США
    Киностудия: Bullet Point Studios, DeepStudios

    Время просмотра: 01:36:08
    Перевод текста: Русский профессиональный многоголосый закадровый

    Файл
    Кодек для видео: H.264
    Качество фильма: BDRip-AVC 480p
    Информация о видео: 640x480@851x480 (16:9) at 23.976 fps, AVC at 1370 kbps
    Информация о звуке:
    1: АAС 2.0 132 kbps - Русский профессиональный многоголосый закадровый (НТВ+)
    2: АAС 2.0 132 kbps - Английский
    Субтитры: отсутствуют

    MI

    General
    Complete name : C:CREATE264mod1outVamp.U.2013.480p.P.m4v
    Format : MPEG-4
    Codec ID : M4V
    File size : 1.11 GiB
    Duration : 1h 36mn
    Overall bit rate mode : Variable
    Overall bit rate : 1 649 Kbps
    Movie name : Университетский вампир
    Performer : Maclain Nelson Matt Jespersen
    Genre : Comedy
    ContentType : Short Film
    Deion : 300 лет назад вампир Уэйн Грецки утратил способность вампирствовать после потери любви всей жизни. В наши дни он профессор колледжа, однако вампирическое проклятие продолжает преследовать его.
    Recorded date : UTC 2013-03-05 08:00:00
    Encoded date : UTC 2014-04-19 17:03:04
    Tagged date : UTC 2014-04-19 17:15:39
    Copyright : Bullet Point Studios, DeepStudios
    Cover : Yes
    ContentRating : mpaa|Unrated|600|

    Title/Sort : Vamp U
    LongDeion : 300 лет назад вампир Уэйн Грецки утратил способность вампирствовать после потери любви всей жизни. В наши дни он профессор колледжа, однако вампирическое проклятие продолжает преследовать его.
    AppleStoreCatalogID : 594064427
    Vendor : Apple:vendor_id:2013-568197

    Video
    ID : 1
    Format : AVC
    Format/Info : Advanced Video Codec
    Format profile : High@L4.1
    Format settings, CABAC : Yes
    Format settings, ReFrames : 10 frames
    Codec ID : avc1
    Codec ID/Info : Advanced Video Coding
    Duration : 1h 36mn
    Bit rate : 1 368 Kbps
    Maximum bit rate : 14.9 Mbps
    Width : 640 pixels
    Height : 480 pixels
    Display aspect ratio : 16:9
    Frame rate mode : Constant
    Frame rate : 23.976 fps
    Color space : YUV
    Chroma subsampling : 4:2:0
    Bit depth : 8 bits
    Scan type : Progressive
    Bits/(Pixel*Frame) : 0.186
    Stream size : 941 MiB (83%)
    Language : English
    Encoded date : UTC 2014-04-19 17:03:04
    Tagged date : UTC 2014-04-19 17:03:13
    Matrix coefficients : BT.709

    Audio #1
    ID : 2
    Format : AAC
    Format/Info : Advanced Audio Codec
    Format profile : LC
    Codec ID : 40
    Duration : 1h 36mn
    Bit rate mode : Variable
    Bit rate : 132 Kbps
    Maximum bit rate : 186 Kbps
    Channel(s) : 2 channels
    Channel positions : Front: L R
    Sampling rate : 48.0 KHz
    Compression mode : Lossy
    Stream size : 92.5 MiB (8%)
    Language : Russian
    Encoded date : UTC 2014-04-19 17:03:09
    Tagged date : UTC 2014-04-19 17:03:13

    Audio #2
    ID : 3
    Format : AAC
    Format/Info : Advanced Audio Codec
    Format profile : LC
    Codec ID : 40
    Duration : 1h 36mn
    Bit rate mode : Variable
    Bit rate : 132 Kbps
    Maximum bit rate : 185 Kbps
    Channel(s) : 2 channels
    Channel positions : Front: L R
    Sampling rate : 48.0 KHz
    Compression mode : Lossy
    Stream size : 92.3 MiB (8%)
    Language : English
    Encoded date : UTC 2014-04-19 17:03:11
    Tagged date : UTC 2014-04-19 17:03:13

    iTunes tags


    Sort Name: Vamp U
    XID: Apple:vendor_id:2013-568197
    Content ID: 594064427
    Copyright: Bullet Point Studios, DeepStudios
    ScreenWriters: Мэтт Есперсен, Маклейн Нельсон
    Producers: Брайнтон Брайан, Т.Р. Гурли, Брэд Джонсон
    Director: Мэтт Есперсен, Маклейн Нельсон
    Cast: Джули Гонсало, Адам Джонсон, Алексис Нэп, Гэри Коул, Маклейн Нельсон, Мэтт Маттсон, Барт Джонсон, Клэр Нидерпрюэм, Фрэнки Леванджи, Джейк Ван Вагонер // Julie Gonzalo (Chris Keller / Mary Lipinsky), Adam Johnson (Wayne Gretzky), Gary Cole (Arthur Levine), Maclain Nelson (Fred Green), Bart Johnson (Ted), Alexis Knapp (Samantha), Renny Grames (Mel), Leanna Pareja (Carly)
    Rating: Unrated
    Long Deion: 300 лет назад вампир Уэйн Грецки утратил способность вампирствовать после потери любви всей жизни. В наши дни он профессор колледжа, однако вампирическое проклятие продолжает преследовать его.
    Deion: 300 лет назад вампир Уэйн Грецки утратил способность вампирствовать после потери любви всей жизни. В наши дни он профессор колледжа, однако вампирическое проклятие продолжает преследовать его.
    Release Date: 2013-03-05T08:00:00Z
    Genre: Comedy
    Artist: Maclain Nelson Matt Jespersen
    Name: Vamp U
    x264

    x264 info: frame I:1596 Avg QP:14.37 size: 63348
    x264 info: frame P:29561 Avg QP:18.93 size: 16651
    x264 info: frame B:107148 Avg QP:24.18 size: 3670
    x264 info: consecutive B-frames: 2.8% 2.3% 7.6% 20.3% 18.8% 30.0% 6.5% 5.2% 2.8% 1.3% 0.6% 0.7% 0.4% 0.5% 0.2%
    x264 info: mb I I16..4: 12.6% 38.8% 48.7%
    x264 info: mb P I16..4: 0.7% 3.9% 2.1% P16..4: 28.4% 31.6% 15.8% 6.1% 1.8% skip: 9.7%
    x264 info: mb B I16..4: 0.1% 0.4% 0.2% B16..8: 34.0% 14.4% 2.5% direct: 3.1% skip:45.3% L0:40.7% L1:44.0% BI:15.3%
    x264 info: 8x8 transform intra:51.1% inter:35.1%
    x264 info: coded y,uvDC,uvAC intra: 88.2% 69.7% 50.4% inter: 14.8% 7.1% 3.8%
    x264 info: i16 v,h,dc,p: 30% 15% 16% 39%
    x264 info: i8 v,h,dc,ddl,ddr,vr,hd,vl,hu: 16% 7% 6% 9% 12% 15% 10% 14% 11%
    x264 info: i4 v,h,dc,ddl,ddr,vr,hd,vl,hu: 19% 10% 6% 9% 12% 14% 9% 11% 10%
    x264 info: i8c dc,h,v,p: 34% 26% 25% 14%
    x264 info: Weighted P-Frames: Y:2.5% UV:0.8%
    x264 info: ref P L0: 57.5% 9.5% 14.0% 5.7% 4.0% 3.0% 2.4% 1.4% 1.2% 1.1% 0.2% 0.0%
    x264 info: ref B L0: 81.5% 8.6% 4.2% 1.9% 1.4% 1.0% 0.8% 0.5% 0.3%
    x264 info: ref B L1: 93.0% 7.0%
    x264 info: kb/s:1368.29



    full-size screenshots










    Залил: gekka
    Размер скачиваемого торрента: 1.11 GB (1189289223 Bytes)

    Университетский вампир / Vamp U (2013) BDRip-AVC | iPhone | P торрент скачать бесплатно
    загрузка...
    Рейтинг →
     (голосов: 1, оценка 4/5, голосовать можно 1 раз )

    Другие торренты по теме:

  • Университетский вампир / Vamp U (2013) WEB-DLRip | НТВ торрент скачать бесплатно
  • Университетский вампир / Vamp U (2013) WEB-DL 720p от CINEMANIA | НТВ торрент скачать бесплатно
  • Университетский вампир / Vamp U (2013) HDRip от Deadmauvlad | НТВ скачать через торрент бесплатно
  • Университетский вампир / Vamp U (2013) Blu-Ray | НТВ скачать через торрент бесплатно
  • Университетский вампир / Vamp U (2013) BDRip-AVC от MediaClub | P2 | НТВ скачать через торрент бесплатно
  • Университетский вампир / Vamp U (2013) BDRemux 1080p от ExKinoRay | Р2 скачать через торрент бесплатно
  • Университетский вампир / Vamp U (2013) BDRip от Rulya74 | НТВ скачать через торрент бесплатно
  • Университетский вампир / Vamp U (2013) BDRip-AVC | iPad | P скачать через торрент бесплатно


    • Комментарии (0):

      Информация

      Информация

        Посетители, находящиеся в группе Гости, не могут оставлять комментарии в данной новости.

        ↓ Меню



        ↓ Опрос

        А Вы добавили сайт в закладки?
        Да
        Не


        Top 10 за неделю (Фильмы)