.
Авторизация | Регистрация
» » Игра Эндера / Enders Game (2013) BDRip-AVC | iPad | P1 торрент скачать бесплатно




    Игра Эндера / Enders Game (2013) BDRip-AVC | iPad | P1 торрент скачать бесплатно

    Опубликовал: Админ | Дата: 27-02-2015, 11:10 | Просмотров: 212



    Игра Эндера / Ender;s Game (2013) BDRip-AVC | iPad | P1

    Русское название: Игра Эндера
    Русское название в мировом прокате: Ender;s Game
    Создали в: 2013
    Категория жанра: фантастика, боевик, приключения
    Главный режиссер: Гэвин Худ
    Актеры: Эйса Баттерфилд, Харрисон Форд, Бен Кингсли, Виола Дэвис, Хейли Стайнфелд, Эбигейл Бреслин, Арамис Найт, Сурадж Партха, Мойзес Ариас, Кайлин Рамбо

    Сюжет фильма:
    Действие происходит в 2135 году. Человечество пережило два вторжения инопланетной расы жукеров, лишь чудом уцелев, и готовится к очередному вторжению.

    Для поиска пилотов и военачальников, способных принести Земле победу, создаётся военная школа, в которую отправляют самых талантливых детей. Среди этих детей Эндрю (Эндер) Виггин, будущий полководец Международного флота Земли и единственная надежда человечества на спасение.



    Снималось в: США
    Киностудия: Chartoff Production

    Время просмотра: 01:53:48
    Перевод текста: Русский профессиональный одноголосый закадровый

    Файл
    Кодек для видео: H.264
    Качество фильма: BDRip-AVC 480p
    Информация о видео: 1024x426 (2.40:1) at 23.976 fps, AVC at 1970 kbps
    Информация о звуке:
    1: АAС 2.0 132 kbps - Русский профессиональный одноголосый закадровый (AVO, В.Горчаков)
    2: АAС 2.0 140 kbps - Английский
    Субтитры: Русский, Английский

    MI

    General
    Complete name : C:CREATE264mod1outEnders.Game.2013.576p.P1.m4v
    Format : MPEG-4
    Codec ID : M4V
    File size : 1.80 GiB
    Duration : 1h 53mn
    Overall bit rate mode : Variable
    Overall bit rate : 2 260 Kbps
    Movie name : Игра Эндера
    Performer : Gavin Hood
    Genre : Action Adventure
    ContentType : Short Film
    Deion : Действие происходит в 2135 году. Человечество пережило два вторжения инопланетной расы жукеров (англ. buggers), лишь чудом уцелев, и готовится к очередному вторжению. Для поиска пилотов и военачальников, способных принести Земле победу...
    Recorded date : UTC 2013-11-01 07:00:00
    Encoded date : UTC 2014-04-19 07:18:47
    Tagged date : UTC 2014-04-19 08:05:24
    Copyright : © 2013 Ender’s Game Holdings LLC.
    Cover : Yes
    Comment : Это не игра
    ContentRating : mpaa|PG-13|300|

    Title/Sort : Ender;s Game
    LongDeion : Действие происходит в 2135 году. Человечество пережило два вторжения инопланетной расы жукеров (англ. buggers), лишь чудом уцелев, и готовится к очередному вторжению. Для поиска пилотов и военачальников, способных принести Земле победу, создаётся военная школа, в которую отправляют самых талантливых детей с раннего возраста. Среди этих детей Эндрю (Эндер) Виггин, будущий полководец Международного флота Земли и единственная надежда человечества на спасение.
    AppleStoreCatalogID : 723143800
    Vendor : Apple:vendor_id:2013-568687

    Video
    ID : 1
    Format : AVC
    Format/Info : Advanced Video Codec
    Format profile : High@L4.1
    Format settings, CABAC : Yes
    Format settings, ReFrames : 10 frames
    Codec ID : avc1
    Codec ID/Info : Advanced Video Coding
    Duration : 1h 53mn
    Bit rate : 1 971 Kbps
    Maximum bit rate : 15.5 Mbps
    Width : 1 024 pixels
    Height : 426 pixels
    Display aspect ratio : 2.40:1
    Frame rate mode : Constant
    Frame rate : 23.976 fps
    Color space : YUV
    Chroma subsampling : 4:2:0
    Bit depth : 8 bits
    Scan type : Progressive
    Bits/(Pixel*Frame) : 0.188
    Stream size : 1.57 GiB (87%)
    Title : Ender_s Game _2013_
    Language : English
    Encoded date : UTC 2014-04-19 07:18:47
    Tagged date : UTC 2014-04-19 07:19:09
    Matrix coefficients : BT.709

    Audio #1
    ID : 2
    Format : AAC
    Format/Info : Advanced Audio Codec
    Format profile : LC
    Codec ID : 40
    Duration : 1h 53mn
    Bit rate mode : Variable
    Bit rate : 132 Kbps
    Maximum bit rate : 208 Kbps
    Channel(s) : 2 channels
    Channel positions : Front: L R
    Sampling rate : 48.0 KHz
    Compression mode : Lossy
    Stream size : 109 MiB (6%)
    Title : VO V.Gorchakov
    Language : Russian
    Encoded date : UTC 2014-04-19 07:12:24
    Tagged date : UTC 2014-04-19 07:19:09

    Audio #2
    ID : 3
    Format : AAC
    Format/Info : Advanced Audio Codec
    Format profile : LC
    Codec ID : 40
    Duration : 1h 53mn
    Bit rate mode : Variable
    Bit rate : 140 Kbps
    Maximum bit rate : 208 Kbps
    Channel(s) : 2 channels
    Channel positions : Front: L R
    Sampling rate : 48.0 KHz
    Compression mode : Lossy
    Stream size : 114 MiB (6%)
    Title : Original
    Language : English
    Encoded date : UTC 2014-04-19 07:15:29
    Tagged date : UTC 2014-04-19 07:19:09

    Text #1
    ID : 4
    Format : Timed Text
    Muxing mode : sbtl
    Codec ID : tx3g
    Duration : 1h 45mn
    Bit rate mode : Variable
    Bit rate : 93 bps
    Stream size : 71.9 KiB (0%)
    Title : Subtitle Russian
    Language : Russian
    Encoded date : UTC 2014-04-19 07:19:09
    Tagged date : UTC 2014-04-19 07:19:09

    Text #2
    ID : 5
    Format : Timed Text
    Muxing mode : sbtl
    Codec ID : tx3g
    Duration : 1h 45mn
    Bit rate mode : Variable
    Bit rate : 65 bps
    Stream size : 50.6 KiB (0%)
    Title : Subtitle English
    Language : English
    Encoded date : UTC 2014-04-19 07:19:09
    Tagged date : UTC 2014-04-19 07:19:09

    Menu
    ID : 6
    Codec ID : text
    Duration : 1h 53mn
    Encoded date : UTC 2014-04-19 07:19:34
    Tagged date : UTC 2014-04-19 07:19:34
    Bit rate mode : VBR

    iTunes tags


    Sort Name: Ender;s Game
    XID: Apple:vendor_id:2013-568687
    Content ID: 723143800
    Copyright: © 2013 Ender’s Game Holdings LLC.
    ScreenWriters: Гэвин Худ, Орсон Скотт Кард
    Producers: Орсон Скотт Кард, Роберт Чартофф, Линн Хенди
    Director: Гэвин Худ
    Cast: Эйса Баттерфилд, Харрисон Форд, Бен Кингсли, Виола Дэвис, Хейли Стайнфелд, Эбигейл Бреслин, Арамис Найт, Сурадж Партха, Мойзес Ариас, Кайлин Рамб // Asa Butterfield (Ender Wiggin), Harrison Ford (Colonel Hyrum Graff), Hailee Steinfeld (Petra Arkanian), Abigail Breslin (Valentine Wiggin), Ben Kingsley (Mazer Rackham), Viola Davis (Major Gwen Anderson), Aramis Knight (Bean), Suraj Partha (Alai), Moises Arias (Bonzo Madrid), Khylin Rhambo (Dink Meeker), Jimmy Jax Pinchak (Peter Wiggin), Conor Carroll (Bernard)
    Rating: PG-13
    Long Deion: Действие происходит в 2135 году. Человечество пережило два вторжения инопланетной расы жукеров (англ. buggers), лишь чудом уцелев, и готовится к очередному вторжению. Для поиска пилотов и военачальников, способных принести Земле победу, создаётся военная школа, в которую отправляют самых талантливых детей с раннего возраста. Среди этих детей Эндрю (Эндер) Виггин, будущий полководец Международного флота Земли и единственная надежда человечества на спасение.
    Deion: Действие происходит в 2135 году. Человечество пережило два вторжения инопланетной расы жукеров (англ. buggers), лишь чудом уцелев, и готовится к очередному вторжению. Для поиска пилотов и военачальников, способных принести Земле победу...
    Release Date: 2013-11-01T07:00:00Z
    Genre: Action Adventure
    Artist: Gavin Hood
    Name: Игра Эндера
    Comments: Это не игра

    x264

    x264 info: frame I:1744 Avg QP:14.91 size: 60398
    x264 info: frame P:37456 Avg QP:18.01 size: 21696
    x264 info: frame B:124528 Avg QP:20.35 size: 6139
    x264 info: consecutive B-frames: 3.5% 3.3% 7.5% 25.3% 16.2% 31.4% 3.6% 4.3% 1.1% 1.6% 0.2% 0.2% 0.1% 1.5% 0.1%
    x264 info: mb I I16..4: 12.0% 57.5% 30.5%
    x264 info: mb P I16..4: 0.9% 8.1% 2.3% P16..4: 30.6% 35.5% 13.3% 4.2% 0.9% skip: 4.3%
    x264 info: mb B I16..4: 0.1% 0.9% 0.3% B16..8: 35.3% 18.2% 2.7% direct: 4.4% skip:38.2% L0:39.2% L1:45.1% BI:15.7%
    x264 info: 8x8 transform intra:68.8% inter:40.5%
    x264 info: coded y,uvDC,uvAC intra: 90.9% 78.1% 55.5% inter: 17.5% 11.7% 5.0%
    x264 info: i16 v,h,dc,p: 6% 11% 9% 74%
    x264 info: i8 v,h,dc,ddl,ddr,vr,hd,vl,hu: 9% 10% 6% 9% 13% 12% 14% 12% 15%
    x264 info: i4 v,h,dc,ddl,ddr,vr,hd,vl,hu: 10% 10% 4% 9% 15% 13% 14% 11% 15%
    x264 info: i8c dc,h,v,p: 34% 29% 17% 20%
    x264 info: Weighted P-Frames: Y:6.3% UV:3.2%
    x264 info: ref P L0: 58.7% 9.3% 13.5% 5.7% 3.9% 2.8% 2.3% 1.3% 1.1% 1.0% 0.3% 0.0%
    x264 info: ref B L0: 81.2% 8.1% 4.1% 2.1% 1.5% 1.1% 0.9% 0.6% 0.4%
    x264 info: ref B L1: 93.4% 6.6%
    x264 info: kb/s:1971.01



    full-size screenshots










    Залил: gekka
    Размер скачиваемого торрента: 1.80 GB (1929482908 Bytes)

    Игра Эндера / Enders Game (2013) BDRip-AVC | iPad | P1 торрент скачать бесплатно
    загрузка...
    Рейтинг →
     (голосов: 1, оценка 5/5, голосовать можно 1 раз )

    Другие торренты по теме:

  • Орсон Скотт Кард - Игра Эндера (2009) MP3 торрент скачать бесплатно
  • OST - Игра Эндера / Enders Game (2013) FLAC скачать через торрент бесплатно
  • Игра Эндера (2013) HDRip лицензия торрент скачать бесплатно
  • Игра Эндера / Enders Game (2013) TS торрент скачать бесплатно
  • Игра Эндера / Enders Game (2013) HDTVRip 720p | Звук TS скачать через торрент бесплатно
  • Игра Эндера / Enders Game (2013) HDTVRip | Звук TS скачать через торрент бесплатно
  • Игра Эндера / Enders Game (2013) HDTV 720p | Звук с TS торрент скачать бесплатно
  • Игра Эндера / Enders Game (2013) WEB-DL 1080p | Звук с TS скачать через торрент бесплатно


    • Комментарии (0):

      Информация

      Информация

        Посетители, находящиеся в группе Гости, не могут оставлять комментарии в данной новости.

        ↓ Меню



        ↓ Опрос

        А Вы добавили сайт в закладки?
        Да
        Не


        Top 10 за неделю (Фильмы)