.
Авторизация | Регистрация
Хочешь лучшие торренты? Добавь свой email!
Добавить
» » Рассекая волны / Breaking the Waves (1996) BDRip by msltel | P торрент скачать бесплатно




    Рассекая волны / Breaking the Waves (1996) BDRip by msltel | P торрент скачать бесплатно

    Опубликовал: Админ | Дата: 27-02-2015, 11:10 | Просмотров: 230



    Русское название: Рассекая волны
    Русское название в мировом прокате: Breaking the Waves
    Создали в: 1996
    Категория жанра: Драма, мелодрама
    Снималось в: Дания, Швеция, Франция, Нидерланды, Норвегия, Исландия, Испания, Argus Film Produktie, Arte, Canal+
    Главный режиссер: Ларс фон Триер
    Актеры: Эмили Уотсон, Стеллан Скарсгард, Кэтрин Картлидж, Жан-Марк Барр, Эдриан Роулинз, Джонатан Хэкетт, Сандра Воу, Удо Кир, Миккель Гауп, Рёеф Рагас

    Сюжет фильма: Бог даёт каждому что-то, чтобы он стал лучше. Молодая девушка Бесс из отдаленной общины на северо-западе Шотландии влюбилась в хорошего парня Яна, работающего на буровой установке в море. Несмотря на противостояние родственников, они женятся. Бесс просит Бога, чтобы Ян всегда был рядом с ней, и Ян возвращается к ней. Искалеченным после несчастного случая на буровой. Что может сделать молодая женщина, чтобы её любимый остался жив? На какую жертву может пойти?

    Качество фильма: BDRip
    Информация о видео: XviD, 1574 Кбит/с, 720x304
    Информация о звуке: Русский, английский (AC3, 6 ch, 448 Кбит/c)
    Размер скачиваемого торрента: 2.76 ГБ
    Время просмотра: 2:39:21
    Перевод текста: Профессиональный многоголосый
    Субтитры: Русские

    Исходник: ollan (Кинозал)

    Сравнение с исходником



    Награды
    Оскар, 1997 год
    Номинации (1):
    Лучшая женская роль (Эмили Уотсон)

    Золотой глобус, 1997 год
    Номинации (2):
    Лучший фильм (драма)
    Лучшая женская роль (драма) (Эмили Уотсон)

    Британская академия, 1997 год
    Номинации (1):
    Лучшая женская роль (Эмили Уотсон)

    Сезар, 1997 год
    Победитель (1):
    Лучший фильм на иностранном языке
    Гойя, 1997 год

    Номинации (1):
    Лучший европейский фильм — Дания, Франция, Нидерланды, Норвегия, Швеция

    Каннский кинофестиваль, 1996 год
    Победитель (1):
    Большой приз жюри

    Номинации (1):
    Золотая пальмовая ветвь

    Европейская киноакадемия, 1996 год
    Победитель (3):
    Лучший фильм
    Лучшая женская роль (Эмили Уотсон)
    Приз международной ассоциации кинокритиков (ФИПРЕССИ)
    MediaInfo
    Общее
    Полное имя : D:VideoRassekaja volny.1996.XviD.BDRipRassekaja volny.1996.Original.eng.ac3
    Формат : AC-3
    Формат/Информация : Audio Coding 3
    Размер файла : 511 Мбайт
    Продолжительность : 2 ч. 39 м.
    Режим общего битрейта : Постоянный
    Общий поток : 448 Кбит/сек

    Аудио
    Формат : AC-3
    Формат/Информация : Audio Coding 3
    Расширение режима : CM (complete main)
    Параметр Endianness формата : Big
    Продолжительность : 2 ч. 39 м.
    Вид битрейта : Постоянный
    Битрейт : 448 Кбит/сек
    Каналы : 6 каналов
    Расположение каналов : Front: L C R, Side: L R, LFE
    Частота : 48,0 КГц
    Битовая глубина : 16 бит
    Метод сжатия : С потерями
    Размер потока : 511 Мбайт (100%)

    Общее
    Полное имя : D:VideoRassekaja volny.1996.XviD.BDRipRassekaja volny.1996.rus.srt
    Размер файла : 87,2 Кбайт

    Общее
    Полное имя : D:VideoRassekaja volny.1996.XviD.BDRipRassekaja volny.1996.XviD.BDRip.avi
    Формат : AVI
    Формат/Информация : Audio Video Interleave
    Профиль формата : OpenDML
    Размер файла : 2,26 Гбайт
    Продолжительность : 2 ч. 39 м.
    Общий поток : 2033 Кбит/сек
    Программа кодирования : VirtualDubMod 1.5.10.2 (build 2540/release)
    Библиотека кодирования : VirtualDubMod build 2540/release

    Видео
    Идентификатор : 0
    Формат : MPEG-4 Visual
    Профиль формата : Advanced Simple@L5
    Параметр BVOP формата : 1
    Параметр QPel формата : Нет
    Параметр GMC формата : Без точки перехода
    Параметр матрицы формата : Default (H.263)
    Режим смешивания : Сжатый битовый поток
    Идентификатор кодека : XVID
    Идентификатор кодека/Подсказка : XviD
    Продолжительность : 2 ч. 39 м.
    Битрейт : 1574 Кбит/сек
    Ширина : 720 пикселей
    Высота : 304 пикселя
    Соотношение сторон : 2,35:1
    Частота кадров : 23,976 кадра/сек
    Цветовое пространство : YUV
    Субдискретизация насыщенности : 4:2:0
    Битовая глубина : 8 бит
    Тип развёртки : Прогрессивная
    Метод сжатия : С потерями
    Бит/(Пиксели*Кадры) : 0.300
    Размер потока : 1,75 Гбайт (77%)
    Библиотека кодирования : XviD 1.2.1 (UTC 2008-12-04)

    Аудио
    Идентификатор : 1
    Формат : AC-3
    Формат/Информация : Audio Coding 3
    Расширение режима : CM (complete main)
    Параметр Endianness формата : Big
    Идентификатор кодека : 2000
    Продолжительность : 2 ч. 39 м.
    Вид битрейта : Постоянный
    Битрейт : 448 Кбит/сек
    Каналы : 6 каналов
    Расположение каналов : Front: L C R, Side: L R, LFE
    Частота : 48,0 КГц
    Битовая глубина : 16 бит
    Метод сжатия : С потерями
    Размер потока : 511 Мбайт (22%)
    Выравнивание : Разделение по промежуткам
    Продолжительность промежутка : 42 мс. (1,00 видеокадр)
    Время предзагрузки промежутка : 500 мс.
    Скриншоты для ознакомления



    Залил: msltel
    Размер скачиваемого торрента: 2.76 GB (2965896924 Bytes)

    Рассекая волны / Breaking the Waves (1996) BDRip by msltel | P торрент скачать бесплатно
    загрузка...
    Рейтинг →
     (голосов: 1, оценка 5/5, голосовать можно 1 раз )

    Другие торренты по теме:

  • Рассекая волны / Breaking the Waves (1996) DVDRip-AVC от Temperest
  • Рассекая волны / Breaking the Waves (1996) BDRip 720p | Р
  • Рассекая волны / Breaking the Waves (1996) BDRip 720p от ExKinoRay | Р
  • Рассекая волны / Breaking the Waves (1996) BDRip-AVC | iPad | P скачать через торрент бесплатно
  • Рассекая волны / Breaking the Waves (1996) BDRip-AVC от Rulya74 скачать через торрент бесплатно
  • Рассекая волны / Breaking the Waves (1996) BDRip от Koenig | P


    • Комментарии (0):

      Информация

      Информация

        Посетители, находящиеся в группе Гости, не могут оставлять комментарии в данной новости.

        ↓ Меню



        ↓ Опрос

        А Вы добавили сайт в закладки?
        Да
        Не


        Top 10 за месяц (Фильмы)