.
Авторизация | Регистрация
» » Университетский вампир / Vamp U (2013) BDRip-AVC | iPad | P скачать через торрент бесплатно




    Университетский вампир / Vamp U (2013) BDRip-AVC | iPad | P скачать через торрент бесплатно

    Опубликовал: Админ | Дата: 27-02-2015, 11:10 | Просмотров: 185



    Университетский вампир / Vamp U (2013) BDRip-AVC | iPad | P

    Русское название: Университетский вампир
    Русское название в мировом прокате: Vamp U
    Создали в: 2013
    Категория жанра: фантастика, боевик, приключения
    Главный режиссер: Мэтт Есперсен, Маклейн Нельсон
    Актеры: Джули Гонсало, Адам Джонсон, Алексис Нэп, Гэри Коул, Маклейн Нельсон, Мэтт Маттсон, Барт Джонсон, Клэр Нидерпрюэм, Фрэнки Леванджи, Джейк Ван Вагонер

    Сюжет фильма:
    300 лет назад вампир Уэйн Грецки утратил способность вампирствовать после потери любви всей жизни. В наши дни он профессор колледжа, однако вампирическое проклятие продолжает преследовать его.



    Снималось в: США
    Киностудия: Bullet Point Studios, DeepStudios

    Время просмотра: 01:36:08
    Перевод текста: Русский профессиональный многоголосый закадровый

    Файл
    Кодек для видео: H.264
    Качество фильма: BDRip-AVC 576p
    Информация о видео: 1024x576 (16:9) at 23.976 fps, AVC at 1990 kbps
    Информация о звуке:
    1: АAС 2.0 132 kbps - Русский профессиональный многоголосый закадровый (НТВ+)
    2: АAС 2.0 132 kbps - Английский
    Субтитры: отсутствуют

    MI

    General
    Complete name : C:CREATE264mod0outVamp.U.2013.576p.P.m4v
    Format : MPEG-4
    Codec ID : M4V
    File size : 1.53 GiB
    Duration : 1h 36mn
    Overall bit rate mode : Variable
    Overall bit rate : 2 274 Kbps
    Movie name : Университетский вампир
    Performer : Maclain Nelson Matt Jespersen
    Genre : Comedy
    ContentType : Short Film
    Deion : 300 лет назад вампир Уэйн Грецки утратил способность вампирствовать после потери любви всей жизни. В наши дни он профессор колледжа, однако вампирическое проклятие продолжает преследовать его.
    Recorded date : UTC 2013-03-05 08:00:00
    Encoded date : UTC 2014-04-20 14:35:42
    Tagged date : UTC 2014-04-20 17:10:19
    Copyright : Bullet Point Studios, DeepStudios
    Cover : Yes
    ContentRating : mpaa|Unrated|600|

    Title/Sort : Vamp U
    LongDeion : 300 лет назад вампир Уэйн Грецки утратил способность вампирствовать после потери любви всей жизни. В наши дни он профессор колледжа, однако вампирическое проклятие продолжает преследовать его.
    AppleStoreCatalogID : 594064427
    Vendor : Apple:vendor_id:2013-568197

    Video
    ID : 1
    Format : AVC
    Format/Info : Advanced Video Codec
    Format profile : High@L4.1
    Format settings, CABAC : Yes
    Format settings, ReFrames : 11 frames
    Codec ID : avc1
    Codec ID/Info : Advanced Video Coding
    Duration : 1h 36mn
    Bit rate : 1 993 Kbps
    Maximum bit rate : 20.7 Mbps
    Width : 1 024 pixels
    Height : 576 pixels
    Display aspect ratio : 16:9
    Frame rate mode : Constant
    Frame rate : 23.976 fps
    Color space : YUV
    Chroma subsampling : 4:2:0
    Bit depth : 8 bits
    Scan type : Progressive
    Bits/(Pixel*Frame) : 0.141
    Stream size : 1.34 GiB (88%)
    Language : English
    Encoded date : UTC 2014-04-20 14:35:42
    Tagged date : UTC 2014-04-20 14:36:07

    Audio #1
    ID : 2
    Format : AAC
    Format/Info : Advanced Audio Codec
    Format profile : LC
    Codec ID : 40
    Duration : 1h 36mn
    Bit rate mode : Variable
    Bit rate : 132 Kbps
    Maximum bit rate : 186 Kbps
    Channel(s) : 2 channels
    Channel positions : Front: L R
    Sampling rate : 48.0 KHz
    Compression mode : Lossy
    Stream size : 92.5 MiB (6%)
    Language : Russian
    Encoded date : UTC 2014-04-20 14:35:55
    Tagged date : UTC 2014-04-20 14:36:07

    Audio #2
    ID : 3
    Format : AAC
    Format/Info : Advanced Audio Codec
    Format profile : LC
    Codec ID : 40
    Duration : 1h 36mn
    Bit rate mode : Variable
    Bit rate : 132 Kbps
    Maximum bit rate : 185 Kbps
    Channel(s) : 2 channels
    Channel positions : Front: L R
    Sampling rate : 48.0 KHz
    Compression mode : Lossy
    Stream size : 92.3 MiB (6%)
    Language : English
    Encoded date : UTC 2014-04-20 14:36:01
    Tagged date : UTC 2014-04-20 14:36:07

    iTunes tags


    Sort Name: Vamp U
    XID: Apple:vendor_id:2013-568197
    Content ID: 594064427
    Copyright: Bullet Point Studios, DeepStudios
    ScreenWriters: Мэтт Есперсен, Маклейн Нельсон
    Producers: Брайнтон Брайан, Т.Р. Гурли, Брэд Джонсон
    Director: Мэтт Есперсен, Маклейн Нельсон
    Cast: Джули Гонсало, Адам Джонсон, Алексис Нэп, Гэри Коул, Маклейн Нельсон, Мэтт Маттсон, Барт Джонсон, Клэр Нидерпрюэм, Фрэнки Леванджи, Джейк Ван Вагонер // Julie Gonzalo (Chris Keller / Mary Lipinsky), Adam Johnson (Wayne Gretzky), Gary Cole (Arthur Levine), Maclain Nelson (Fred Green), Bart Johnson (Ted), Alexis Knapp (Samantha), Renny Grames (Mel), Leanna Pareja (Carly)
    Rating: Unrated
    Long Deion: 300 лет назад вампир Уэйн Грецки утратил способность вампирствовать после потери любви всей жизни. В наши дни он профессор колледжа, однако вампирическое проклятие продолжает преследовать его.
    Deion: 300 лет назад вампир Уэйн Грецки утратил способность вампирствовать после потери любви всей жизни. В наши дни он профессор колледжа, однако вампирическое проклятие продолжает преследовать его.
    Release Date: 2013-03-05T08:00:00Z
    Genre: Comedy
    Artist: Maclain Nelson Matt Jespersen
    Name: Vamp U

    x264

    x264 info: frame I:1589 Avg QP:15.12 size: 74552
    x264 info: frame P:28744 Avg QP:17.84 size: 21207
    x264 info: frame B:107972 Avg QP:20.35 size: 6570
    x264 info: consecutive B-frames: 2.3% 1.9% 8.1% 18.9% 16.1% 36.5% 6.2% 3.5% 3.4% 1.1% 0.5% 0.7% 0.3% 0.6%
    x264 info: mb I I16..4: 9.1% 65.0% 25.9%
    x264 info: mb P I16..4: 0.5% 6.6% 1.5% P16..4: 35.3% 38.5% 12.4% 0.0% 0.0% skip: 5.3%
    x264 info: mb B I16..4: 0.0% 0.9% 0.1% B16..8: 35.8% 18.4% 2.4% direct: 3.3% skip:39.2% L0:40.6% L1:44.6% BI:14.7%
    x264 info: 8x8 transform intra:75.0% inter:48.1%
    x264 info: coded y,uvDC,uvAC intra: 93.6% 71.0% 52.3% inter: 14.5% 7.7% 3.5%
    x264 info: i16 v,h,dc,p: 19% 17% 13% 51%
    x264 info: i8 v,h,dc,ddl,ddr,vr,hd,vl,hu: 14% 10% 8% 8% 11% 13% 11% 12% 12%
    x264 info: i4 v,h,dc,ddl,ddr,vr,hd,vl,hu: 15% 12% 3% 9% 15% 14% 12% 10% 11%
    x264 info: i8c dc,h,v,p: 34% 30% 21% 15%
    x264 info: Weighted P-Frames: Y:2.6% UV:0.9%
    x264 info: ref P L0: 58.1% 8.2% 13.7% 6.2% 4.1% 3.1% 2.4% 1.4% 1.0% 0.9% 0.8% 0.1% 0.0%
    x264 info: ref B L0: 78.9% 9.3% 4.7% 2.2% 1.6% 1.2% 0.8% 0.6% 0.4% 0.2%
    x264 info: ref B L1: 92.4% 7.6%
    x264 info: kb/s:1993.45




    Залил: gekka
    Размер скачиваемого торрента: 1.53 GB (1640058846 Bytes)

    Университетский вампир / Vamp U (2013) BDRip-AVC | iPad | P скачать через торрент бесплатно
    загрузка...
    Рейтинг →
     (голосов: 1, оценка 3/5, голосовать можно 1 раз )

    Другие торренты по теме:

  • Университетский вампир / Vamp U (2013) WEB-DLRip | НТВ торрент скачать бесплатно
  • Университетский вампир / Vamp U (2013) WEB-DL 720p от CINEMANIA | НТВ торрент скачать бесплатно
  • Университетский вампир / Vamp U (2013) HDRip от Deadmauvlad | НТВ скачать через торрент бесплатно
  • Университетский вампир / Vamp U (2013) Blu-Ray | НТВ скачать через торрент бесплатно
  • Университетский вампир / Vamp U (2013) BDRip-AVC от MediaClub | P2 | НТВ скачать через торрент бесплатно
  • Университетский вампир / Vamp U (2013) BDRemux 1080p от ExKinoRay | Р2 скачать через торрент бесплатно
  • Университетский вампир / Vamp U (2013) BDRip от Rulya74 | НТВ скачать через торрент бесплатно
  • Университетский вампир / Vamp U (2013) BDRip-AVC | iPhone | P торрент скачать бесплатно


    • Комментарии (0):

      Информация

      Информация

        Посетители, находящиеся в группе Гости, не могут оставлять комментарии в данной новости.

        ↓ Меню



        ↓ Опрос

        А Вы добавили сайт в закладки?
        Да
        Не


        Top 10 за неделю (Фильмы)