.
Авторизация | Регистрация
Хочешь лучшие торренты? Добавь свой email!
Добавить
» » Стрела / Arrow (2012-2014) WEB-DLRip от Generalfilm | КПК | LostFilm скачать через торрент бесплатно




    Стрела / Arrow (2012-2014) WEB-DLRip от Generalfilm | КПК | LostFilm скачать через торрент бесплатно

    Опубликовал: Админ | Дата: 27-02-2015, 11:10 | Просмотров: 226



    Детально о кино
    Русское название: Стрела
    Русское название в мировом прокате: Arrow
    Создали в: 2012
    Категория жанра: Фантастика, боевик, драма, криминал, детектив, приключения
    Главный режиссер: Дэвид Баррет, Эгил Эгилссон, Ник Копус
    Актеры: Стивен Амелл, Кэти Кэссиди, Колин Доннелл, Дэвид Рэмси, Уилла Холлэнд, Сюзанна Томпсон, Пол Блекторн, Колин Сэлмон, Эмили Бетт Рикардс, Энни Айлонзех

    Сюжет фильма:
    После пяти лет, проведенных на одном из необитаемых островов юго-восточной Азии, молодой и дерзкий миллиардер Оливер Куин возвращается домой другим человеком. Все это время все считали его погибшим в результате кораблекрушения. Однако, он оказался единственным из членов экипажа затонувшего судна, кому не просто удалось выжить... Внешние или внутренние обстоятельства превратили его в совершенно другого человека, правда, Оливер отчего-то не спешит предъявить себя в новом качестве общественности.



    Снималось в: США
    Киностудия: Warner Bros Television
    Время просмотра: 42 x ~00:42:00
    Перевод текста: Профессиональный (многоголосый, закадровый) LostFilm

    Файл
    Тип видео: MP4
    Качество фильма: WEB-DLRip | КПК
    Информация о видео: MPEG-4 AVC (x264), 640x360, ~500 kbps, 23.976 fps
    Информация о звуке: AAC LC, 48.0 KHz, 2 ch, 128 Kbps
    Субтитры: Нет

    Раздача ведётся путём добавления новых серий. 20.04.2014 Добавлена 19-я серия 2-го сезон любимого сериалаа

    Семпл

    Скриншоты для ознакомления

    MI
    K:киноStrela.Sezon1.2012.AVC.WEB-DLRip.KPK.GeneralfilmStrela.s01e03.2012.AVC.WEB-DLRip.KPK.Generalfilm.mp4
    Format : MPEG-4
    Format profile : Base Media
    Codec ID : isom
    File size : 192 MiB
    Duration : 42mn 34s
    Overall bit rate mode : Variable
    Overall bit rate : 631 Kbps
    Encoded date : UTC 2013-05-04 18:01:55
    Tagged date : UTC 2013-05-04 18:01:55
    Video #1
    ID : 1
    Format : AVC
    Format/Info : Advanced Video Codec
    Format profile : Baseline@L4.1
    Format settings, CABAC : No
    Format settings, ReFrames : 6 frames
    Codec ID : avc1
    Codec ID/Info : Advanced Video Coding
    Duration : 42mn 34s
    Bit rate : 500 Kbps
    Maximum bit rate : 5 645 Kbps
    Width : 640 pixels
    Height : 360 pixels
    Display aspect ratio : 16:9
    Frame rate mode : Constant
    Frame rate : 23.976 fps
    Color space : YUV
    Chroma subsampling : 4:2:0
    Bit depth : 8 bits
    Scan type : Progressive
    Bits/(Pixel*Frame) : 0.091
    Stream size : 152 MiB (79%)
    Writing library : x264 core 116 r2074 2641b9e
    Encoding settings : cabac=0 / ref=6 / deblock=1:-1:-1 / analyse=0x1:0x111 / me=umh / subme=7 / psy=1 / psy_rd=1.00:0.00 / mixed_ref=0 / me_range=16 / chroma_me=1 / trellis=1 / 8x8dct=0 / cqm=0 / deadzone=21,11 / fast_pskip=0 / chroma_qp_offset=-2 / threads=3 / sliced_threads=0 / nr=0 / decimate=1 / interlaced=0 / bluray_compat=0 / constrained_intra=0 / bframes=0 / weightp=0 / keyint=250 / keyint_min=23 / scenecut=40 / intra_refresh=0 / rc_lookahead=60 / rc=2pass / mbtree=1 / bitrate=500 / ratetol=1.0 / qcomp=0.60 / qpmin=0 / qpmax=69 / qpstep=4 / cplxblur=20.0 / qblur=0.5 / ip_ratio=1.40 / aq=1:1.00
    Encoded date : UTC 2013-05-04 18:01:55
    Tagged date : UTC 2013-05-04 18:02:05
    Audio #2
    ID : 2
    Format : AAC
    Format/Info : Advanced Audio Codec
    Format profile : LC
    Codec ID : 40
    Duration : 42mn 34s
    Bit rate mode : Variable
    Bit rate : 128 Kbps
    Maximum bit rate : 217 Kbps
    Channel(s) : 2 channels
    Channel positions : Front: L R
    Sampling rate : 48.0 KHz
    Compression mode : Lossy
    Stream size : 39.0 MiB (20%)
    Encoded date : UTC 2013-05-04 18:02:01
    Tagged date : UTC 2013-05-04 18:02:05

    Релиз подготовил:
    Залил: toys_watch
    Размер скачиваемого торрента: 7.83 GB (8402307550 Bytes)

    Стрела / Arrow (2012-2014) WEB-DLRip от Generalfilm | КПК | LostFilm скачать через торрент бесплатно
    загрузка...
    Рейтинг →
     (голосов: 1, оценка 3/5, голосовать можно 1 раз )

    Другие торренты по теме:

  • Стрела / Arrow (2012) WEB-DL 1080p | NewStudio
  • Сломанная стрела / Broken Arrow (1996) НDRip | P
  • Стивенсон Роберт Льюис - Черная Стрела (2010) МРЗ
  • Стивенсон Роберт Льюис - Черная стрела (2012) MP3
  • Стрела. Абсолютное оружие / Choi-jong-byeong-gi Hwal (2011) BDRip-AVC от potroks | Ю.Сербин
  • Серебряная стрела / Silver Streak (1976) HDTVRip-AVC от Тorrent-Хzona
  • Огонь и стрела / The Flame and the Arrow (1950) DVDRip-AVC от Тorrent-Хzona
  • Стрела / Arrow (2013) HDTVRip 720p | Kerob скачать через торрент бесплатно


    • Комментарии (0):

      Информация

      Информация

        Посетители, находящиеся в группе Гости, не могут оставлять комментарии в данной новости.

        ↓ Меню



        ↓ Опрос

        А Вы добавили сайт в закладки?
        Да
        Не


        Top 10 за месяц (Фильмы)