.
Авторизация | Регистрация
» » Синоби / Shinobi (2005) BDRip-AVC | iPad | P скачать через торрент бесплатно




    Синоби / Shinobi (2005) BDRip-AVC | iPad | P скачать через торрент бесплатно

    Опубликовал: Админ | Дата: 27-02-2015, 11:10 | Просмотров: 343



    Синоби / Shinobi (2005) BDRip-AVC | iPad | P

    Русское название: Синоби
    Русское название в мировом прокате: Shinobi
    Создали в: 2005
    Категория жанра: фэнтези, боевик, драма, мелодрама
    Главный режиссер: Тэн Симояма
    Актеры: Юкиэ Накама, Дзё Одагири, Томока Куротани, Эрика Савадзири, Такеши Масу, Так Сакагути, Мицуки Кога, Шун Ито, Хоука Киносита, Кэндзи Миёси

    Сюжет фильма:
    1614 год. Япония, наконец, объединилась под властью первого сёгуна Токугава. Генноске из клана Кога и Оборо из клана Ига остаются последней надеждой двух деревень, разрываемых трагедией беспрерывной мести. Их благословенная любовь должна принести мир страдающим ниндзя, населяющим деревни.

    Однако заговор Токугавы снова сеет вражду между ними. Генноске выступает в защиту мира, а Оборо выбирает сражение как средство разрешения конфликтов. И теперь, когда им предстоит встретиться как врагам, смогут ли они сохранить свою божественную любовь?


    Снималось в: Япония
    Киностудия: Eisei Gekijo Company, Nippon Television Network (NTV), Shochiku Company

    Время просмотра: 01:42:00
    Перевод текста: Русский профессиональный многоголосый закадровый

    Файл
    Кодек для видео: H.264
    Качество фильма: BDRip-AVC 576p
    Информация о видео: 1024x432 (2.35:1) at 23.976 fps, AVC at 2300 kbps
    Информация о звуке:
    1: АAС 2.0 108 kbps - Русский профессиональный многоголосый закадровый
    2: АAС 2.0 140 kbps - Английский
    Субтитры: отсутствуют

    MI

    General
    Complete name : C:CREATE264mod0outShinobi.2005.576p.P.m4v
    Format : MPEG-4
    Codec ID : M4V
    File size : 1.82 GiB
    Duration : 1h 42mn
    Overall bit rate mode : Variable
    Overall bit rate : 2 558 Kbps
    Movie name : Синоби
    Performer : Ten Shimoyama
    Genre : Action Adventure
    ContentType : Short Film
    Deion : 1614 год. Япония, наконец, объединилась под властью первого сёгуна Токугава. Генноске из клана Кога и Оборо из клана Ига остаются последней надеждой двух деревень, разрываемых трагедией беспрерывной мести. Их благословенная любовь должна принести мир
    Recorded date : UTC 2005-09-17 08:00:00
    Encoded date : UTC 2014-04-20 19:47:27
    Tagged date : UTC 2014-04-20 19:52:35
    Copyright : Eisei Gekijo Company, Nippon Television Network (NTV), Shochiku Company
    Cover : Yes
    ContentRating : mpaa|R|400|

    Title/Sort : Shinobi
    LongDeion : 1614 год. Япония, наконец, объединилась под властью первого сёгуна Токугава. Генноске из клана Кога и Оборо из клана Ига остаются последней надеждой двух деревень, разрываемых трагедией беспрерывной мести. Их благословенная любовь должна принести мир страдающим ниндзя, населяющим деревни.Однако заговор Токугавы снова сеет вражду между ними. Генноске выступает в защиту мира, а Оборо выбирает сражение как средство разрешения конфликтов. И теперь, когда им предстоит встретиться как врагам, смогут ли они сохранить свою божественную любовь?
    AppleStoreCatalogID : 210339
    Vendor : Apple:vendor_id:2005-210339

    Video
    ID : 1
    Format : AVC
    Format/Info : Advanced Video Codec
    Format profile : High@L4.1
    Format settings, CABAC : Yes
    Format settings, ReFrames : 11 frames
    Codec ID : avc1
    Codec ID/Info : Advanced Video Coding
    Duration : 1h 42mn
    Bit rate : 2 291 Kbps
    Maximum bit rate : 11.9 Mbps
    Width : 1 024 pixels
    Height : 432 pixels
    Display aspect ratio : 2.40:1
    Frame rate mode : Constant
    Frame rate : 23.976 fps
    Color space : YUV
    Chroma subsampling : 4:2:0
    Bit depth : 8 bits
    Scan type : Progressive
    Bits/(Pixel*Frame) : 0.216
    Stream size : 1.63 GiB (90%)
    Language : English
    Encoded date : UTC 2014-04-20 19:47:27
    Tagged date : UTC 2014-04-20 19:47:59

    Audio #1
    ID : 2
    Format : AAC
    Format/Info : Advanced Audio Codec
    Format profile : LC
    Codec ID : 40
    Duration : 1h 42mn
    Bit rate mode : Variable
    Bit rate : 106 Kbps
    Maximum bit rate : 126 Kbps
    Channel(s) : 2 channels
    Channel positions : Front: L R
    Sampling rate : 48.0 KHz
    Compression mode : Lossy
    Stream size : 77.1 MiB (4%)
    Title : MVO
    Language : Russian
    Encoded date : UTC 2014-04-20 19:44:51
    Tagged date : UTC 2014-04-20 19:47:59

    Audio #2
    ID : 3
    Format : AAC
    Format/Info : Advanced Audio Codec
    Format profile : LC
    Codec ID : 40
    Duration : 1h 42mn
    Bit rate mode : Variable
    Bit rate : 150 Kbps
    Maximum bit rate : 190 Kbps
    Channel(s) : 2 channels
    Channel positions : Front: L R
    Sampling rate : 48.0 KHz
    Compression mode : Lossy
    Stream size : 109 MiB (6%)
    Title : Original
    Language : English
    Encoded date : UTC 2014-04-20 19:47:52
    Tagged date : UTC 2014-04-20 19:47:59

    iTunes tags


    Sort Name: Shinobi
    XID: Apple:vendor_id:2005-210339
    Content ID: 210339
    Copyright: Eisei Gekijo Company, Nippon Television Network (NTV), Shochiku Company
    ScreenWriters: Кенья Хирата, Футаро Ямада
    Producers: Нозому Еноки, Хироюки Саито, Такео Хисамацу
    Director: Тэн Симояма
    Cast: Юкиэ Накама, Дзё Одагири, Томока Куротани, Эрика Савадзири, Такеши Масу, Так Сакагути, Мицуки Кога, Шун Ито, Хоука Киносита, Кэндзи Миёси // Yukie Nakama (Oboro), Erika Sawajiri (Hotarubi), Tomoka Kurotani (Kagerou), Joe Odagiri (Kouga Gen-no-suke), ...
    Rating: R
    Long Deion: 1614 год. Япония, наконец, объединилась под властью первого сёгуна Токугава. Генноске из клана Кога и Оборо из клана Ига остаются последней надеждой двух деревень, разрываемых трагедией беспрерывной мести. Их благословенная любовь должна принести мир страдающим ниндзя, населяющим деревни.Однако заговор Токугавы снова сеет вражду между ними. Генноске выступает в защиту мира, а Оборо выбирает сражение как средство разрешения конфликтов. И теперь, когда им предстоит встретиться как врагам, смогут ли они сохранить свою божественную любовь?
    Deion: 1614 год. Япония, наконец, объединилась под властью первого сёгуна Токугава. Генноске из клана Кога и Оборо из клана Ига остаются последней надеждой двух деревень, разрываемых трагедией беспрерывной мести. Их благословенная любовь должна принести мир
    Release Date: 2005-09-17T08:00:00Z
    Genre: Action Adventure
    Artist: Ten Shimoyama
    Name: Синоби

    x264

    x264 info: frame I:1192 Avg QP:15.45 size: 83642
    x264 info: frame P:30090 Avg QP:17.50 size: 26852
    x264 info: frame B:115452 Avg QP:19.18 size: 7322
    x264 info: consecutive B-frames: 2.4% 2.1% 4.4% 13.8% 22.1% 40.5% 4.9% 6.1% 1.2% 1.3% 0.3% 0.4% 0.3% 0.3%
    x264 info: mb I I16..4: 9.4% 59.0% 31.6%
    x264 info: mb P I16..4: 0.5% 7.8% 1.9% P16..4: 31.5% 37.6% 18.1% 0.0% 0.0% skip: 2.6%
    x264 info: mb B I16..4: 0.0% 1.0% 0.2% B16..8: 30.3% 18.2% 2.9% direct: 6.6% skip:40.8% L0:38.0% L1:41.7% BI:20.3%
    x264 info: 8x8 transform intra:73.4% inter:35.8%
    x264 info: coded y,uvDC,uvAC intra: 95.2% 75.9% 53.2% inter: 22.9% 11.6% 5.3%
    x264 info: i16 v,h,dc,p: 5% 9% 17% 69%
    x264 info: i8 v,h,dc,ddl,ddr,vr,hd,vl,hu: 10% 9% 7% 9% 13% 12% 13% 12% 14%
    x264 info: i4 v,h,dc,ddl,ddr,vr,hd,vl,hu: 9% 8% 5% 9% 15% 14% 14% 12% 14%
    x264 info: i8c dc,h,v,p: 37% 28% 18% 17%
    x264 info: Weighted P-Frames: Y:5.6% UV:3.1%
    x264 info: ref P L0: 56.3% 9.2% 14.2% 6.2% 4.3% 3.1% 2.4% 1.3% 1.1% 0.9% 0.8% 0.1% 0.0%
    x264 info: ref B L0: 83.4% 6.9% 3.7% 1.9% 1.3% 0.9% 0.8% 0.5% 0.4% 0.2%
    x264 info: ref B L1: 95.4% 4.6%
    x264 info: kb/s:2291.45



    full-size screenshots








    Залил: gekka
    Размер скачиваемого торрента: 1.82 GB (1956973843 Bytes)

    Синоби / Shinobi (2005) BDRip-AVC | iPad | P скачать через торрент бесплатно
    загрузка...
    Рейтинг →
     (голосов: 1, оценка 5/5, голосовать можно 1 раз )

    Другие торренты по теме:



      Комментарии (0):

      Информация

      Информация

        Посетители, находящиеся в группе Гости, не могут оставлять комментарии в данной новости.

        ↓ Меню



        ↓ Опрос

        А Вы добавили сайт в закладки?
        Да
        Не


        Top 10 за неделю (Фильмы)