.
Авторизация | Регистрация
Хочешь лучшие торренты? Добавь свой email!
Добавить
» » Смерти вопреки / Hard to Kill (1990) BDRip от New-Team | D скачать через торрент бесплатно




    Смерти вопреки / Hard to Kill (1990) BDRip от New-Team | D скачать через торрент бесплатно

    Опубликовал: Админ | Дата: 27-02-2015, 11:10 | Просмотров: 248


    Снималось в: США
    Создали в: Lee Rich Productions, Warner Bros. Pictures Co.
    Категория жанра: боевик, триллер, драма, криминал
    Создали в: 1990
    Время просмотра: 01:35:38

    Перевод текста: Профессиональный (полное дублирование) Мост Видео
    Оригинальная аудиодорожка: нет
    Субтитры подготовлены: нет

    Главный режиссер: Брюс Мэлмат / Bruce Malmuth

    Актеры:
    Стивен Сигал, Келли ЛеБрок, Уильям Сэдлер, Фредерик Коффин, Бонни Барроуз, Эндрю Блок, Брэнском Ричмонд, Чарльз Босуэлл, Зэкари Розенкранц, Лу Битти мл....

    Сюжет:
    Коррумпированный калифорнийский политик и его наемники подстрелили лос-анджелесского детектива Мейсона Сторма. Они считали его мертвым. Но эта ошибка им дорого обойдется. Сторм живет смерти вопреки.
    Семь лет Сторм провел в тайном укрытии, где его выводили из коматозного состояния. Он очнулся с единственной целью - мстить. С помощью преданной сиделки он готовится к схватке. Он совершенствуется в стрельбе, отрабатывает свои навыки боевых искусств и пользуется восточной медициной, чтобы вернуть себе силы. Его мастерство развернется в полную силу…




    Исходник: BDRemux 1080p
    Тип релиза: BDRip
    Контейнер: AVI

    Информация о видео: 688x384 (16:9), 23,976 fps, XviD ~ 952 kbps avg, 0.150 bit/pixel
    Информация о звуке: 48 kHz, MP3 2.0, 128 kbps

    Раздача от:
    MediaInfo

    Общее
    Полное имя : Smerti.vopreki.1990.BDRip-745_New-team_by_AVP_Studio.avi
    Формат : AVI
    Формат/Информация : Audio Video Interleave
    Размер файла : 745 Мбайт
    Продолжительность : 1 ч. 35 м.
    Общий поток : 1089 Кбит/сек
    Программа кодирования : VirtualDubModRus 1.5.10.2 (build 2542/release)
    Библиотека кодирования : VirtualDubMod build 2542/release

    Видео
    Идентификатор : 0
    Формат : MPEG-4 Visual
    Профиль формата : Advanced Simple@L5
    Параметр BVOP формата : 1
    Параметр QPel формата : Нет
    Параметр GMC формата : Без точки перехода
    Параметр матрицы формата : Выборочная
    Идентификатор кодека : XVID
    Идентификатор кодека/Подсказка : XviD
    Продолжительность : 1 ч. 35 м.
    Битрейт : 952 Кбит/сек
    Ширина : 688 пикселей
    Высота : 384 пикселя
    Соотношение сторон : 16:9
    Частота кадров : 23,976 кадра/сек
    Цветовое пространство : YUV
    Субдискретизация насыщенности : 4:2:0
    Битовая глубина : 8 бит
    Тип развёртки : Прогрессивная
    Метод сжатия : С потерями
    Бит/(Пиксели*Кадры) : 0.150
    Размер потока : 651 Мбайт (87%)
    Библиотека кодирования : XviD 73

    Аудио
    Идентификатор : 1
    Формат : MPEG Audio
    Версия формата : Version 1
    Профиль формата : Layer 3
    Идентификатор кодека : 55
    Идентификатор кодека/Подсказка : MP3
    Продолжительность : 1 ч. 35 м.
    Вид битрейта : Постоянный
    Битрейт : 128 Кбит/сек
    Каналы : 2 канала
    Частота : 48,0 КГц
    Метод сжатия : С потерями
    Размер потока : 87,6 Мбайт (12%)
    Выравнивание : Соединение по промежуткам
    Продолжительность промежутка : 42 мс. (1,00 видеокадр)
    Время предзагрузки промежутка : 504 мс.
    Библиотека кодирования : LAME3.99r
    Залил: AVPStudio
    Размер скачиваемого торрента: 745.10 MB (781289472 Bytes)


    Смерти вопреки / Hard to Kill (1990) BDRip от New-Team | D скачать через торрент бесплатно
    загрузка...
    Рейтинг →
     (голосов: 1, оценка 5/5, голосовать можно 1 раз )

    Другие торренты по теме:

  • S.T.A.L.K.E.R.: Смерти вопреки Сага В центре чертовщины (2012) PC | Mod
  • Смерти вопреки / Нико-2 / Hard to Kill (1990) BDRip 1080p
  • S.T.A.L.K.E.R.: Смерти вопреки Сага - В центре чертовщины (2012) PC | RePack by SeregA-Lus
  • S.T.A.L.K.E.R.: Call Of Pripyat - Смерти Вопреки. Послушник (2012) PC | Mod
  • S.T.A.L.K.E.R.: Call Of Pripyat - Смерти Вопреки. Послушник (2012) PC | RePack by SeregA-Lus
  • S.T.A.L.K.E.R.: Call of Pripyat - Смерти вопреки 2 - Одним днем живу (2014) PC | RePack by SeregA-Lus
  • S.T.A.L.K.E.R.: Зов Припяти - Смерти вопреки 2 - Одним днем живу (2014) PC скачать через торрент бесплатно
  • Смерти вопреки / Нико-2 / Hard to Kill (1990) HDRip от Scarabey | D


    • Комментарии (0):

      Информация

      Информация

        Посетители, находящиеся в группе Гости, не могут оставлять комментарии в данной новости.

        ↓ Меню



        ↓ Опрос

        А Вы добавили сайт в закладки?
        Да
        Не


        Top 10 за месяц (Фильмы)