.
Авторизация | Регистрация
» » Вердикт за деньги / Runaway Jury (2003) BDRip-AVC | iPad | D скачать через торрент бесплатно




    Вердикт за деньги / Runaway Jury (2003) BDRip-AVC | iPad | D скачать через торрент бесплатно

    Опубликовал: Админ | Дата: 27-02-2015, 11:10 | Просмотров: 186



    Вердикт за деньги / Runaway Jury (2003) BDRip-AVC | iPad | D

    Русское название: Вердикт за деньги
    Русское название в мировом прокате: Runaway Jury
    Создали в: 2003
    Категория жанра: триллер, драма
    Главный режиссер: Гари Фледер
    Актеры: Джон Кьюсак, Джин Хэкмен, Дастин Хоффман, Рейчел Вайс, Брюс Дэвисон, Брюс МакГилл, Джереми Пивен, Ник Сирси, Стенли Андерсон, Клифф Кёртис

    Сюжет фильма:
    Один из присяжных во время процесса над производителем оружия объединяет усилия с прелестной девушкой, чтобы получить контроль над всеми присяжными.
    Ставки очень высоки, т. к. процесс тянет на несколько миллионов долларов, поэтому адвокат сталкивается с противодействием присяжного, который не остановится ни перед чем, чтобы решение присяжных осталось в силе…



    Снималось в: США
    Киностудия: Epsilon Motion Pictures, New Regency Pictures, Regency Enterprises

    Время просмотра: 02:07:50
    Перевод текста: Русский дублированный

    Файл
    Кодек для видео: H.264
    Качество фильма: BDRip-AVC 576p
    Информация о видео: 1024x436 (2.35:1) at 23.976 fps, AVC at 2500 kbps
    Информация о звуке:
    1: АAС 2.0 132 kbps - Русский дублированный
    2: АAС 2.0 132 kbps - Английский
    Субтитры: Отсутствует

    MI

    General
    Complete name : C:CREATE264mod1outRunaway.Jury.2003.576p.D.m4v
    Format : MPEG-4
    Codec ID : M4V
    File size : 2.37 GiB
    Duration : 2h 7mn
    Overall bit rate mode : Variable
    Overall bit rate : 2 662 Kbps
    Movie name : Вердикт за деньги
    Performer : Gary Fleder
    Genre : Drama
    ContentType : Short Film
    Deion : Один из присяжных во время процесса над производителем оружия объединяет усилия с прелестной девушкой, чтобы получить контроль над всеми присяжными. Ставки очень высоки, т. к. процесс тянет на несколько миллионов долларов, поэтому...
    Recorded date : UTC 2003-10-09 08:00:00
    Encoded date : UTC 2014-04-23 13:11:18
    Tagged date : UTC 2014-04-23 13:45:50
    Copyright : © 2003 Twentieth Century Fox.
    Cover : Yes
    Comment : Правда. Молчание. Убийство. За деньги можно всё
    ContentRating : mpaa|PG-13|300|

    Title/Sort : Runaway Jury
    LongDeion : Один из присяжных во время процесса над производителем оружия объединяет усилия с прелестной девушкой, чтобы получить контроль над всеми присяжными. Ставки очень высоки, т. к. процесс тянет на несколько миллионов долларов, поэтому адвокат сталкивается с противодействием присяжного, который не остановится ни перед чем, чтобы решение присяжных осталось в силе...
    AppleStoreCatalogID : 300096401
    Vendor : Apple:vendor_id:2003-3621

    Video
    ID : 1
    Format : AVC
    Format/Info : Advanced Video Codec
    Format profile : High@L4.1
    Format settings, CABAC : Yes
    Format settings, ReFrames : 9 frames
    Codec ID : avc1
    Codec ID/Info : Advanced Video Coding
    Duration : 2h 7mn
    Bit rate : 2 509 Kbps
    Maximum bit rate : 11.1 Mbps
    Width : 1 024 pixels
    Height : 436 pixels
    Display aspect ratio : 2.35:1
    Frame rate mode : Constant
    Frame rate : 23.976 fps
    Color space : YUV
    Chroma subsampling : 4:2:0
    Bit depth : 8 bits
    Scan type : Progressive
    Bits/(Pixel*Frame) : 0.234
    Stream size : 2.24 GiB (94%)
    Language : English
    Encoded date : UTC 2014-04-23 13:11:18
    Tagged date : UTC 2014-04-23 13:11:46
    Matrix coefficients : BT.709

    Audio #1
    ID : 2
    Format : AAC
    Format/Info : Advanced Audio Codec
    Format profile : LC
    Codec ID : 40
    Duration : 4mn 22s
    Bit rate mode : Variable
    Bit rate : 132 Kbps
    Maximum bit rate : 168 Kbps
    Channel(s) : 2 channels
    Channel positions : Front: L R
    Sampling rate : 48.0 KHz
    Compression mode : Lossy
    Stream size : 4.14 MiB (0%)
    Title : Dub
    Language : Russian
    Encoded date : UTC 2014-04-23 13:06:03
    Tagged date : UTC 2014-04-23 13:11:46

    Audio #2
    ID : 3
    Format : AAC
    Format/Info : Advanced Audio Codec
    Format profile : LC
    Codec ID : 40
    Duration : 2h 7mn
    Bit rate mode : Variable
    Bit rate : 136 Kbps
    Maximum bit rate : 172 Kbps
    Channel(s) : 2 channels
    Channel positions : Front: L R
    Sampling rate : 48.0 KHz
    Compression mode : Lossy
    Stream size : 124 MiB (5%)
    Language : English
    Encoded date : UTC 2014-04-23 13:08:59
    Tagged date : UTC 2014-04-23 13:11:46

    iTunes tags


    Sort Name: Runaway Jury
    XID: Apple:vendor_id:2003-3621
    Content ID: 300096401
    Copyright: © 2003 Twentieth Century Fox.
    ScreenWriters: Брайан Коппельман, Дэвид Левин, Рик Кливлэнд
    Producers: Гэри Фледер, Кристофер Манкевич, Арнон Милчэн
    Director: Гэри Фледер
    Cast: Джон Кьюсак, Джин Хэкмен, Дастин Хоффман, Рейчел Вайс, Брюс Дэвисон, Брюс МакГилл, Джереми Пивен, Ник Сирси, Стенли Андерсон, Клифф Кёртис // John Cusack (Nicholas Easter), Gene Hackman (Rankin Fitch), Dustin Hoffman (Wendell Rohr), Rachel Weisz (Marlee), Bruce McGill (Judge Harkin), Bruce Davison (Durwood Cable), Jeremy Piven (Lawrence Green)
    Rating: PG-13
    Long Deion: Один из присяжных во время процесса над производителем оружия объединяет усилия с прелестной девушкой, чтобы получить контроль над всеми присяжными. Ставки очень высоки, т. к. процесс тянет на несколько миллионов долларов, поэтому адвокат сталкивается с противодействием присяжного, который не остановится ни перед чем, чтобы решение присяжных осталось в силе...
    Deion: Один из присяжных во время процесса над производителем оружия объединяет усилия с прелестной девушкой, чтобы получить контроль над всеми присяжными. Ставки очень высоки, т. к. процесс тянет на несколько миллионов долларов, поэтому...
    Release Date: 2003-10-09T08:00:00Z
    Genre: Drama
    Artist: Gary Fleder
    Name: Вердикт за деньги
    Comments: Правда. Молчание. Убийство. За деньги можно всё

    x264

    x264 info: frame I:2081 Avg QP:14.76 size: 67168
    x264 info: frame P:42371 Avg QP:16.98 size: 25197
    x264 info: frame B:139044 Avg QP:19.19 size: 8580
    x264 info: consecutive B-frames: 3.4% 3.8% 9.1% 18.4% 22.4% 33.4% 4.4% 2.4% 1.2% 1.0% 0.2% 0.2% 0.0%
    x264 info: mb I I16..4: 10.5% 60.0% 29.5%
    x264 info: mb P I16..4: 1.2% 11.1% 3.8% P16..4: 29.2% 36.9% 12.0% 3.5% 0.5% skip: 1.9%
    x264 info: mb B I16..4: 0.1% 1.0% 0.6% B16..8: 38.3% 23.0% 3.1% direct: 5.7% skip:28.2% L0:38.6% L1:43.7% BI:17.7%
    x264 info: 8x8 transform intra:65.7% inter:41.3%
    x264 info: coded y,uvDC,uvAC intra: 88.9% 70.8% 47.6% inter: 25.2% 12.7% 4.2%
    x264 info: i16 v,h,dc,p: 7% 8% 12% 73%
    x264 info: i8 v,h,dc,ddl,ddr,vr,hd,vl,hu: 14% 10% 8% 9% 12% 12% 11% 12% 12%
    x264 info: i4 v,h,dc,ddl,ddr,vr,hd,vl,hu: 38% 8% 5% 7% 9% 9% 8% 8% 7%
    x264 info: i8c dc,h,v,p: 26% 34% 22% 17%
    x264 info: Weighted P-Frames: Y:4.2% UV:1.8%
    x264 info: ref P L0: 61.6% 9.2% 13.5% 5.6% 3.6% 2.5% 1.8% 1.0% 0.9% 0.2% 0.0%
    x264 info: ref B L0: 84.7% 7.5% 3.5% 1.6% 1.1% 0.8% 0.6% 0.2%
    x264 info: ref B L1: 94.4% 5.6%
    x264 info: kb/s:2509.17




    Залил: gekka
    Размер скачиваемого торрента: 2.37 GB (2546748679 Bytes)

    Вердикт за деньги / Runaway Jury (2003) BDRip-AVC | iPad | D скачать через торрент бесплатно
    загрузка...
    Рейтинг →
     (голосов: 1, оценка 4/5, голосовать можно 1 раз )

    Другие торренты по теме:

  • Вердикт за деньги / Runaway Jury (2003) HDRip от Scarabey | D Sub торрент скачать бесплатно
  • Вердикт / The Verdict (1982) BDRip от HQCLUB торрент скачать бесплатно
  • Вердикт за деньги / Runaway Jury (2003) BDRip-AVC от MediaClub | D скачать через торрент бесплатно
  • Вердикт за деньги / Runaway Jury (2003) BDRip 720p от HQ-ViDEO | D скачать торрент бесплатно
  • Вердикт за деньги / Runaway Jury (2003) BDRip | A скачать торрент бесплатно
  • Вердикт за деньги / Runaway Jury (2003) BDRip от HQ-ViDEO | D скачать торрент бесплатно
  • Вердикт за деньги / Runaway Jury (2003) BDRip-AVC от NNNB | D, A скачать торрент бесплатно


    • Комментарии (0):

      Информация

      Информация

        Посетители, находящиеся в группе Гости, не могут оставлять комментарии в данной новости.

        ↓ Меню



        ↓ Опрос

        А Вы добавили сайт в закладки?
        Да
        Не


        Top 10 за неделю (Фильмы)