.
Авторизация | Регистрация
Хочешь лучшие торренты? Добавь свой email!
Добавить
» » Бабье лето / Indian Summer (1993) BDRip by msltel | A скачать через торрент бесплатно




    Бабье лето / Indian Summer (1993) BDRip by msltel | A скачать через торрент бесплатно

    Опубликовал: Админ | Дата: 27-02-2015, 11:10 | Просмотров: 216



    Русское название: Бабье лето
    Русское название в мировом прокате: Indian Summer
    Создали в: 1993
    Категория жанра: Драма, мелодрама, комедия
    Снималось в: Канада, США, Outlaw Productions, Touchstone Pictures
    Главный режиссер: Майк Байндер
    Актеры: Алан Аркин, Мэтт Крэвен, Дайан Лэйн, Билл Пэкстон, Элизабет Перкинс, Кевин Поллак, Сэм Рэйми, Винсент Спано, Джули Уорнер, Кимберли Уильямс

    Сюжет фильма: На берегах озера Онтарио случается невероятное: время поворачивает вспять. Это чудо оказалось под силу директору детского лагеря Тамаква, который однажды осенью решил снова собрать вместе его обитателей. И вот взрослые люди, когда-то бегавшие по этим просторам детьми, снова оказываются в знакомых домиках, рядом друг с другом и неожиданно для себя начинают переживать события давно ушедших лет.

    Качество фильма: BDRip
    Информация о видео: XviD, 1581 Кбит/с, 720x304
    Информация о звуке: Русский, английский (AC3, 2 ch, 192 Кбит/с)
    Размер скачиваемого торрента: 1.35 ГБ
    Время просмотра: 01:38:07
    Перевод текста: Авторский (Юрий Сербин)
    Субтитры: Русские, английские

    Исходник: ЗЕВС911 (Кинозал)

    Сравнение с исходником



    MediaInfo
    Общее
    Полное имя : D:VideoBabje leto.1993.XviD.BDRipBabje leto.1993.eng.srt
    Размер файла : 169 Кбайт

    Общее
    Полное имя : D:VideoBabje leto.1993.XviD.BDRipBabje leto.1993.Original.eng.ac3
    Формат : AC-3
    Формат/Информация : Audio Coding 3
    Размер файла : 135 Мбайт
    Продолжительность : 1 ч. 38 м.
    Режим общего битрейта : Постоянный
    Общий поток : 192 Кбит/сек

    Аудио
    Формат : AC-3
    Формат/Информация : Audio Coding 3
    Расширение режима : CM (complete main)
    Параметр Endianness формата : Big
    Продолжительность : 1 ч. 38 м.
    Вид битрейта : Постоянный
    Битрейт : 192 Кбит/сек
    Каналы : 2 канала
    Расположение каналов : Front: L R
    Частота : 48,0 КГц
    Битовая глубина : 16 бит
    Метод сжатия : С потерями
    Размер потока : 135 Мбайт (100%)

    Общее
    Полное имя : D:VideoBabje leto.1993.XviD.BDRipBabje leto.1993.rus.srt
    Размер файла : 172 Кбайт

    Общее
    Полное имя : D:VideoBabje leto.1993.XviD.BDRipBabje leto.1993.XviD.BDRip.avi
    Формат : AVI
    Формат/Информация : Audio Video Interleave
    Размер файла : 1,22 Гбайт
    Продолжительность : 1 ч. 38 м.
    Общий поток : 1782 Кбит/сек
    Программа кодирования : VirtualDubMod 1.5.10.2 (build 2540/release)
    Библиотека кодирования : VirtualDubMod build 2540/release

    Видео
    Идентификатор : 0
    Формат : MPEG-4 Visual
    Профиль формата : Advanced Simple@L5
    Параметр BVOP формата : 1
    Параметр QPel формата : Нет
    Параметр GMC формата : Без точки перехода
    Параметр матрицы формата : Default (H.263)
    Режим смешивания : Сжатый битовый поток
    Идентификатор кодека : XVID
    Идентификатор кодека/Подсказка : XviD
    Продолжительность : 1 ч. 38 м.
    Битрейт : 1581 Кбит/сек
    Ширина : 720 пикселей
    Высота : 304 пикселя
    Соотношение сторон : 2,35:1
    Частота кадров : 23,976 кадра/сек
    Цветовое пространство : YUV
    Субдискретизация насыщенности : 4:2:0
    Битовая глубина : 8 бит
    Тип развёртки : Прогрессивная
    Метод сжатия : С потерями
    Бит/(Пиксели*Кадры) : 0.301
    Размер потока : 1,08 Гбайт (89%)
    Библиотека кодирования : XviD 1.2.1 (UTC 2008-12-04)

    Аудио
    Идентификатор : 1
    Формат : AC-3
    Формат/Информация : Audio Coding 3
    Расширение режима : CM (complete main)
    Параметр Endianness формата : Big
    Идентификатор кодека : 2000
    Продолжительность : 1 ч. 38 м.
    Вид битрейта : Постоянный
    Битрейт : 192 Кбит/сек
    Каналы : 2 канала
    Расположение каналов : Front: L R
    Частота : 48,0 КГц
    Битовая глубина : 16 бит
    Метод сжатия : С потерями
    Размер потока : 135 Мбайт (11%)
    Выравнивание : Разделение по промежуткам
    Продолжительность промежутка : 42 мс. (1,00 видеокадр)
    Время предзагрузки промежутка : 500 мс.
    Скриншоты для ознакомления


    Залил: msltel
    Размер скачиваемого торрента: 1.35 GB (1453281568 Bytes)

    Бабье лето / Indian Summer (1993) BDRip by msltel | A скачать через торрент бесплатно
    загрузка...
    Рейтинг →
     (голосов: 1, оценка 3/5, голосовать можно 1 раз )

    Другие торренты по теме:

  • Бабье лето / Indian Summer (1993) BDRip 1080p by msltel | A скачать через торрент бесплатно
  • Валерий Яценко - Бабье лето скачать через торрент бесплатно
  • Бабье лето (2011) SATRip-AVC от ExKinoRay


    • Комментарии (0):

      Информация

      Информация

        Посетители, находящиеся в группе Гости, не могут оставлять комментарии в данной новости.

        ↓ Меню



        ↓ Опрос

        А Вы добавили сайт в закладки?
        Да
        Не


        Top 10 за месяц (Фильмы)