.
Авторизация | Регистрация
» » Ладога (2014) DVDRip от New-Team | лицензия скачать через торрент бесплатно




    Ладога (2014) DVDRip от New-Team | лицензия скачать через торрент бесплатно

    Опубликовал: Админ | Дата: 27-02-2015, 11:10 | Просмотров: 174



    Снималось в: Россия / МАРМОТ-ФИЛЬМ

    Категория жанра: военный, драма
    Создали в: 2014
    Время просмотра: ~00:53:00 - серия

    Перевод текста: Не требуется
    Субтитры подготовлены: нет
    Оригинальная аудиодорожка: русский

    Главный режиссер: Александр Велединский

    Актеры: Ксения Раппопорт, Алексей Серебряков, Андрей Мерзликин, Дмитрий Назаров, Юрий Кузнецов, Виталий Коваленко, Яков Шамшин, Филипп Ершов, Олег Фёдоров, Андрюс Паулавичюс...

    Сюжет: Блокадный Ленинград. Зима 1942-го. Советская контрразведка узнает, что немцы готовят диверсию на Дороге жизни — единственном пути, по которому в город доставляется продовольствие и другие грузы. Скорее всего, диверсант — один из водителей полуторок, работающих на замерзшем Ладожском озере. Найти и остановить врага должен капитан НКВД Сергиенко…



    Качество фильма: DVDRip / DVD9 R5
    Тип видео: AVI

    Информация о видео: 720x400 (16:9), 25.000 fps, XviD ~ 2000 kbps avg, 0.278 bit/pixel
    Информация о звуке: 48 kHz, Dolby AC3, 2 ch, 192 kbps, русский

    Раздача от:

    MediaInfo

    Общее
    Полное имя : Ladoga.2013.O.DVDRip_New-Team_by_avproh1.avi
    Формат : AVI
    Формат/Информация : Audio Video Interleave
    Размер файла : 830 Мбайт
    Продолжительность : 52 м.
    Общий поток : 2201 Кбит/сек
    Программа кодирования : VirtualDubMod 1.5.10.3 | www.virtualdub-fr.org || (build 2550/release)
    Библиотека кодирования : VirtualDubMod build 2550/release

    Видео
    Идентификатор : 0
    Формат : MPEG-4 Visual
    Профиль формата : Advanced Simple@L5
    Параметр BVOP формата : 1
    Параметр QPel формата : Нет
    Параметр GMC формата : Без точки перехода
    Параметр матрицы формата : Выборочная
    Идентификатор кодека : XVID
    Идентификатор кодека/Подсказка : XviD
    Продолжительность : 52 м.
    Битрейт : 1999 Кбит/сек
    Ширина : 720 пикселей
    Высота : 400 пикселей
    Соотношение сторон : 16:9
    Частота кадров : 25,000 кадров/сек
    Цветовое пространство : YUV
    Субдискретизация насыщенности : 4:2:0
    Битовая глубина : 8 бит
    Тип развёртки : Прогрессивная
    Метод сжатия : С потерями
    Бит/(Пиксели*Кадры) : 0.278
    Размер потока : 754 Мбайт (91%)
    Библиотека кодирования : XviD 73

    Аудио
    Идентификатор : 1
    Формат : AC-3
    Формат/Информация : Audio Coding 3
    Расширение режима : CM (complete main)
    Параметр Endianness формата : Big
    Идентификатор кодека : 2000
    Продолжительность : 52 м.
    Вид битрейта : Постоянный
    Битрейт : 192 Кбит/сек
    Каналы : 2 канала
    Расположение каналов : Front: L R
    Частота : 48,0 КГц
    Битовая глубина : 16 бит
    Метод сжатия : С потерями
    Размер потока : 72,4 Мбайт (9%)
    Выравнивание : Разделение по промежуткам
    Продолжительность промежутка : 40 мс. (1,00 видеокадр)
    Время предзагрузки промежутка : 500 мс.

    Скриншоты для ознакомления:



    Сравнение:

    http://rutor.org/torrent/331957/
    SATRip-DVDRip видео http://screenshotcomparison.com/comparison/71687
    SATRip-DVDRip аудио http://screenshotcomparison.com/comparison/71685 - у конкурента звук MP3, 2 ch, 128 Кбит/с, в моем релизе АС3, 2 ch, 192 Кбит/с.

    http://rutor.org/torrent/332007/
    HDTVRip-DVDRip видео http://screenshotcomparison.com/comparison/71689
    HDTVRip-DVDRip аудио http://screenshotcomparison.com/comparison/71690 - у конкурента звук MP3, 2 ch, 128 Кбит/с, в моем релизе читай выше.

    Ремарка: Про SATRip говорить не буду, тут и так всё ясно, а вот про HDTVRip хочу сказать отдельно. По HD каналам часто гонят низкобитрейтные трансляции с плохим звуком. Если само HDTV ещё смотреть можно, то рипы с них делать чаще всего получается не очень здорово, что и доказывает приведенное выше сравнение. Будем ждать Blu-Ray.

    Залил: avproh
    Размер скачиваемого торрента: 3.24 GB (3473616896 Bytes)

    Ладога (2014) DVDRip от New-Team | лицензия скачать через торрент бесплатно
    загрузка...
    Рейтинг →
     (голосов: 1, оценка 5/5, голосовать можно 1 раз )

    Другие торренты по теме:



      Комментарии (0):

      Информация

      Информация

        Посетители, находящиеся в группе Гости, не могут оставлять комментарии в данной новости.

        ↓ Меню



        ↓ Опрос

        А Вы добавили сайт в закладки?
        Да
        Не


        Top 10 за неделю (Фильмы)