.
Авторизация | Регистрация
» » Мегапаук / Big Ass Spider (2013) BDRip-AVC | L1 скачать через торрент бесплатно




    Мегапаук / Big Ass Spider (2013) BDRip-AVC | L1 скачать через торрент бесплатно

    Опубликовал: Админ | Дата: 27-02-2015, 11:10 | Просмотров: 239



    Детально о кино
    Русское название: Мегапаук
    Русское название в мировом прокате: Big Ass Spider
    Создали в: 2013
    Категория жанра: фантастика, комедия
    Главный режиссер: Майк Мендез
    Актеры: Рэй Уайз, Лин Шэй, Грег Гранберг, Клэр Крамер, Ллойд Кауфман, Патрик Бошо, Чатон Андерсон, Ломбардо Бойяр, Мэри Червинский, Алексис Найт

    Сюжет фильма:
    Обычно от радиации всё живое умирает, но пауку, ставшему главным героем этого фильма, повезло. Причём, он не только не погиб, но и стал очень быстро расти, вскоре достигнув чудовищных размеров. В поисках пищи мегапаук проникает на улицы Лос-Анджелеса, сея там ужас и разрушения. И хотя против него брошена целая армия, пока военным мало что удается сделать с монстром. Борьба с пауком осложняется ещё и тем, что теперь этот восьминогий убийца способен становиться почти невидимым.




    Снималось в: США
    Киностудия: Epic Pictures Group, Film Entertainment Services...
    Время просмотра: 01:20:37
    Перевод текста: Любительское (одноголосое) ХиХиДок

    Файл
    Кодек для видео: h.264 (MKV)
    Качество фильма: BDRip-AVC
    Информация о видео: AVC, 1024 x 576, ~1567 kbps
    Информация о звуке: Русский: AC-3, 2 ch, 192 kbps / Английский: AC-3, 6 ch, 448 kbps
    Субтитры: Английский

    Семпл

    Скриншоты для ознакомления
    MI
    Общее
    Уникальный идентификатор : 168348648403719580577546155723716462494 (0x7EA6C532C2870C1E037BA147C20E879E)
    Полное имя : H:Мегапаук Big Ass Spider (2013)Big.Ass.Spider.2013.BDRip-AVC.mkv
    Формат : Matroska
    Версия формата : Version 2
    Размер файла : 1,42 Гбайт
    Продолжительность : 1 ч. 30 м.
    Режим общего битрейта : Переменный
    Общий поток : 2252 Кбит/сек
    Программа кодирования : Lavf51.12.1
    Библиотека кодирования : Lavf51.12.1

    Видео
    Идентификатор : 1
    Формат : AVC
    Формат/Информация : Advanced Video Codec
    Профиль формата : Baseline@L3.1
    Параметр CABAC формата : Нет
    Параметр ReFrames формата : 1 кадр
    Параметр GOP формата : M=1, N=12
    Идентификатор кодека : V_MPEG4/ISO/AVC
    Продолжительность : 1 ч. 30 м.
    Вид битрейта : Переменный
    Битрейт : 1567 Кбит/сек
    Максимальный битрейт : 2790 Кбит/сек
    Ширина : 1024 пикселя
    Высота : 576 пикселей
    Соотношение сторон : 16:9
    Режим частоты кадров : Постоянный
    Частота кадров : 23,976 кадра/сек
    Частота кадров в оригинале : 24,000 кадра/сек
    Цветовое пространство : YUV
    Субдискретизация насыщенности : 4:2:0
    Битовая глубина : 8 бит
    Тип развёртки : Прогрессивная
    Бит/(Пиксели*Кадры) : 0.111
    Размер потока : 1015 Мбайт (70%)
    Язык : English
    Default : Да
    Forced : Нет

    Аудио #1
    Идентификатор : 2
    Формат : AC-3
    Формат/Информация : Audio Coding 3
    Расширение режима : CM (complete main)
    Параметр Endianness формата : Big
    Идентификатор кодека : A_AC3
    Продолжительность : 1 ч. 30 м.
    Вид битрейта : Постоянный
    Битрейт : 192 Кбит/сек
    Каналы : 2 канала
    Расположение каналов : Front: L R
    Частота : 48,0 КГц
    Битовая глубина : 16 бит
    Метод сжатия : С потерями
    Размер потока : 124 Мбайт (9%)
    Язык : Russian
    Default : Да
    Forced : Нет

    Аудио #2
    Идентификатор : 4
    Формат : AC-3
    Формат/Информация : Audio Coding 3
    Расширение режима : CM (complete main)
    Параметр Endianness формата : Big
    Идентификатор кодека : A_AC3
    Продолжительность : 1 ч. 30 м.
    Вид битрейта : Постоянный
    Битрейт : 448 Кбит/сек
    Каналы : 6 каналов
    Расположение каналов : Front: L C R, Side: L R, LFE
    Частота : 48,0 КГц
    Битовая глубина : 16 бит
    Метод сжатия : С потерями
    Размер потока : 290 Мбайт (20%)
    Язык : English
    Default : Да
    Forced : Нет

    Текст
    Идентификатор : 3
    Формат : UTF-8
    Идентификатор кодека : S_TEXT/UTF8
    Идентификатор кодека/Информация : UTF-8 Plain Text
    Язык : English
    Default : Да
    Forced : Нет

    Размер скачиваемого торрента: 1.42 GB (1528956564 Bytes)

    Мегапаук / Big Ass Spider (2013) BDRip-AVC | L1 скачать через торрент бесплатно
    загрузка...
    Рейтинг →
     (голосов: 1, оценка 3/5, голосовать можно 1 раз )

    Другие торренты по теме:

  • Мегапаук / Big Ass Spider (2013) BDRip 1080p от CINEMANIA | L1 скачать через торрент бесплатно
  • Мегапаук / Big Ass Spider (2013) BDRip 720p от CINEMANIA | L1 скачать через торрент бесплатно
  • Мегапаук / Big Ass Spider (2013) HDRip | L1 скачать через торрент бесплатно


    • Комментарии (0):

      Информация

      Информация

        Посетители, находящиеся в группе Гости, не могут оставлять комментарии в данной новости.

        ↓ Меню



        ↓ Опрос

        А Вы добавили сайт в закладки?
        Да
        Не


        Top 10 за неделю (Фильмы)