.
Авторизация | Регистрация
» » Соседка по комнате / The Roommate (2011) BDRemux 1080p от URALMIX | P, L2 | Лицензия скачать через торрент бесплатно




    Соседка по комнате / The Roommate (2011) BDRemux 1080p от URALMIX | P, L2 | Лицензия скачать через торрент бесплатно

    Опубликовал: Админ | Дата: 27-02-2015, 11:10 | Просмотров: 240



    Детально о кино

    Русское название: Соседка по комнате
    Русское название в мировом прокате: The Roommate
    Создали в: 2011
    Категория жанра: Триллер, драма
    Снималось в: США, Screen Gems, Vertigo Entertainment
    Главный режиссер: Кристиан Е. Кристиансен
    Актеры: Лейтон Мистер, Ширли Норрис, Ник Билсма, Минка Келли, Кэм Жиганде, Элисон Мичалка, Дэннил Эклс, Фрэнсис Фишер, Томас Арана, Билли Зейн, Нина Добрев, Мэтт Лантер, Катерина Грэхэм


    Сюжет фильма: Выпускница Сара Мэттьюс поступает в колледж. Там она знакомится со своей новой соседкой по комнате — Ребеккой. Со временем девушки становятся настоящими подругами, но когда у Сары появляются новые друзья и любимый человек, отношения между подругами начинают портиться. Вскоре Ребекка начинает давить на Сару, не желая отпускать её от себя. Сара начинает сопротивляться настырной подруге. Вскоре с ее друзьями начинают происходить несчастные случаи. Позже она узнает, что все это — дело рук Ребекки, страдающей психическими расстройствами. Девушка начинает вредить каждому, кто, как ей кажется, встаёт между ней и Сарой. Теперь Саре нужно спасаться как можно скорее — ведь кто знает, что взбредет в голову ее соседке…





    Файл

    Качество фильма: Blu-Ray Remux (1080p)
    Информация о видео: MPEG-4 AVC, 23916 Kбит/с, 1920x1080, 23.976 кадр/с
    Информация о звуке: Русский (AC3, 2 ch, 192 Кбит/с), (AC3, 6 ch, 640 Кбит/с), английский (DTS-HD MA, 6 ch, 2747 Кбит/с)
    Размер скачиваемого торрента: 17.53 ГБ
    Время просмотра: 01:31:00
    Перевод текста: Профессиональный многоголосый, любительский двухголосый
    Субтитры: Русские, английские


    Аудио: Dolby Digital Audio Russian 5.1 / 48 kHz / 640 kbps Профессиональный (многоголосый, закадровый) CEE
    Аудио: Dolby Digital Audio Russian 2.0 / 48 kHz / 192 kbps Любительский (двухголосый закадровый) Katerina Kerob
    Аудио: DTS-HD Master Audio English 5.1 / 48 kHz / 2747 kbps / 24-bit (DTS Core: 5.1 / 48 kHz / 1509 kbps / 24-bit)

    Сохранены оригинальные чаптеры как на Blu-Ray.

    Инфо-файл

    Общее
    Уникальный идентификатор : 189278140302280872165960626450469177296 (0x8E65A4D18EFA9B4EB10953FCC28347D0)
    Полное имя : D:ЗагрузкиThe.Roommate.2011.1080p.Bluray.AVC.Remux.mkv
    Формат : Matroska
    Версия формата : Version 2
    Размер файла : 17,5 Гбайт
    Продолжительность : 1 ч. 31 м.
    Режим общего битрейта : Переменный
    Общий поток : 27,5 Мбит/сек
    Название фильма : The.Roommate.2011.1080p.Bluray.AVC.Remux
    Дата кодирования : UTC 2011-06-01 00:05:01
    Программа кодирования : mkvmerge v4.8.0 (;I Got The...;) сборка от May 24 2011 03:12:58
    Библиотека кодирования : libebml v1.2.0 + libmatroska v1.1.0

    Видео
    Идентификатор : 1
    Формат : AVC
    Формат/Информация : Advanced Video Codec
    Профиль формата : High@L4.1
    Параметр CABAC формата : Да
    Параметр ReFrames формата : 2 кадра
    Параметр GOP формата : M=1, N=10
    Идентификатор кодека : V_MPEG4/ISO/AVC
    Продолжительность : 1 ч. 31 м.
    Вид битрейта : Переменный
    Ширина : 1920 пикселей
    Высота : 1080 пикселей
    Соотношение сторон : 16:9
    Режим частоты кадров : Постоянный
    Частота кадров : 23,976 кадра/сек
    Цветовое пространство : YUV
    Субдискретизация насыщенности : 4:2:0
    Битовая глубина : 8 бит
    Тип развёртки : Прогрессивная
    Заголовок : uralmix
    Default : Да
    Forced : Нет

    Аудио #1
    Идентификатор : 2
    Формат : AC-3
    Формат/Информация : Audio Coding 3
    Расширение режима : CM (complete main)
    Параметр Endianness формата : Big
    Идентификатор кодека : A_AC3
    Продолжительность : 1 ч. 31 м.
    Вид битрейта : Постоянный
    Битрейт : 640 Кбит/сек
    Каналы : 6 каналов
    Расположение каналов : Front: L C R, Side: L R, LFE
    Частота : 48,0 КГц
    Битовая глубина : 16 бит
    Метод сжатия : С потерями
    Размер потока : 418 Мбайт (2%)
    Заголовок : R5 / CEE
    Язык : Russian
    Default : Да
    Forced : Нет

    Аудио #2
    Идентификатор : 3
    Формат : AC-3
    Формат/Информация : Audio Coding 3
    Расширение режима : CM (complete main)
    Параметр Endianness формата : Big
    Идентификатор кодека : A_AC3
    Продолжительность : 1 ч. 31 м.
    Вид битрейта : Постоянный
    Битрейт : 192 Кбит/сек
    Каналы : 2 канала
    Расположение каналов : Front: L R
    Частота : 48,0 КГц
    Битовая глубина : 16 бит
    Метод сжатия : С потерями
    Размер потока : 125 Мбайт (1%)
    Заголовок : двухголосый
    Язык : Russian
    Default : Нет
    Forced : Нет

    Аудио #3
    Идентификатор : 4
    Формат : DTS
    Формат/Информация : Digital Theater Systems
    Профиль формата : MA / Core
    Режим : 16
    Параметр Endianness формата : Big
    Идентификатор кодека : A_DTS
    Продолжительность : 1 ч. 31 м.
    Вид битрейта : Переменный
    Битрейт : Неизвестно / 1509 Кбит/сек
    Каналы : 6 каналов
    Расположение каналов : Front: L C R, Side: L R, LFE
    Частота : 48,0 КГц
    Битовая глубина : 24 бит
    Метод сжатия : Без потерь / Lossy
    Язык : English
    Default : Нет
    Forced : Нет

    Текст #1
    Идентификатор : 5
    Формат : UTF-8
    Идентификатор кодека : S_TEXT/UTF8
    Идентификатор кодека/Информация : UTF-8 Plain Text
    Язык : Russian
    Default : Да
    Forced : Нет

    Текст #2
    Идентификатор : 6
    Формат : UTF-8
    Идентификатор кодека : S_TEXT/UTF8
    Идентификатор кодека/Информация : UTF-8 Plain Text
    Язык : English
    Default : Нет
    Forced : Нет

    Меню
    00:00:00.000 : en:00:00:00.000
    00:07:07.802 : en:00:07:07.802
    00:10:31.673 : en:00:10:31.673
    00:15:25.007 : en:00:15:25.007
    00:20:45.870 : en:00:20:45.870
    00:24:30.427 : en:00:24:30.427
    00:29:18.966 : en:00:29:18.966
    00:34:02.290 : en:00:34:02.290
    00:41:10.677 : en:00:41:10.677
    00:45:13.753 : en:00:45:13.753
    00:51:33.799 : en:00:51:33.799
    00:55:49.137 : en:00:55:49.137
    01:00:39.427 : en:01:00:39.427
    01:04:31.409 : en:01:04:31.409
    01:10:43.531 : en:01:10:43.531
    01:18:52.061 : en:01:18:52.061



    Скриншоты для ознакомления







    Релиз подготовил: Автор релиза - Diablo
    Залил: ollan
    Размер скачиваемого торрента: 17.53 GB (18825173353 Bytes)

    Соседка по комнате / The Roommate (2011) BDRemux 1080p от URALMIX | P, L2 | Лицензия скачать через торрент бесплатно
    загрузка...
    Рейтинг →
     (голосов: 1, оценка 3/5, голосовать можно 1 раз )

    Другие торренты по теме:

  • Соседка / Порнососедка / The Girl Next Door (2004) HDRip от Scarabey | D | Расширенная версия торрент скачать бесплатно
  • БумеR - Соседка (2013) MP3 от Youtracker торрент скачать бесплатно
  • Соседка / The Girl Next Door (2004) HDRip | КПК | D | Unrated Cut торрент скачать бесплатно
  • Соседка / The Girl Next Door (2004) BDRip-AVC | D торрент скачать бесплатно
  • Сексуальные соседки Плейбоя (Дикие штучки) (63 серия) / Playboys Sexy Girls - Next Door (2004) HDTVRip от KinoRay amp Sheikn | P2 скачать через торрент бесплатно
  • Соседка / The Girl Next Door (2004) Blu-Ray EUR Remux 1080p от ivandubskoj | Расширенная версия / Unrated version | D, P, A скачать через торрент бесплатно
  • Соседка / Девушка напротив / The Girl Next Door (2004) BDRip 720p от Leonardo and Scarabey | Расширенная версия скачать через торрент бесплатно
  • Плохая соседка (2015) WEB-DL 720p от Files-x скачать через торрент бесплатно


    • Комментарии (0):

      Информация

      Информация

        Посетители, находящиеся в группе Гости, не могут оставлять комментарии в данной новости.

        ↓ Меню



        ↓ Опрос

        А Вы добавили сайт в закладки?
        Да
        Не


        Top 10 за неделю (Фильмы)