.
Авторизация | Регистрация
Хочешь лучшие торренты? Добавь свой email!
Добавить
» » Корона и дракон / The Crown and the Dragon (2013) BDRip от New-Team | P | лицензия скачать через торрент бесплатно




    Корона и дракон / The Crown and the Dragon (2013) BDRip от New-Team | P | лицензия скачать через торрент бесплатно

    Опубликовал: Админ | Дата: 27-02-2015, 11:10 | Просмотров: 199



    Снималось в: США / Arrowstorm Entertainment, Wulf / Gourley Productions

    Категория жанра: фэнтези, приключения
    Создали в: 2013
    Время просмотра: 01:31:36
    Перевод текста: Профессиональный (многоголосый закадровый)
    Субтитры подготовлены: нет
    Оригинальная аудиодорожка: нет

    Главный режиссер: Энн К. Блэк / Anne K. Black

    Актеры: Оуэн Бартон, Эми Де Брюн, Энгус Браун, Клер Кордингли, Стефан Дюбуа, Кайнен Гриффин, Дэвид Хейдн, Ава Хант, Грант Хатчинсон, Christophe Lombardi...

    Сюжет: Через истерзанную войной страну, страдающую от жестокого дракона, молодая дворянка сопровождает свою тетю, чтобы доставить древнюю реликвию на секретную коронацию законного короля.



    Качество фильма: BDRip / BDRemux 1080p + DVD5 R5
    Тип видео: AVI

    Информация о видео: 720x400 (16:9), 23.976 fps, XviD, ~1820 Кбит/сек avg, 0.264 bit/pix
    Информация о звуке: 48 kHz, Dolby AC3, 6 ch, 448 kbps, русский

    Дополнительно: Фильм разбит на главы, как на оригинальном Blu-ray диске.

    Раздача от:
    MediaInfo

    Общее
    Полное имя : Korona.i.drakon.2013.P.BDRip_New-Team_by_avproh.avi
    Формат : AVI
    Формат/Информация : Audio Video Interleave
    Размер файла : 1,46 Гбайт
    Продолжительность : 1 ч. 31 м.
    Общий поток : 2277 Кбит/сек
    Программа кодирования : VirtualDubModRus 1.5.10.2 (build 2542/release)
    Библиотека кодирования : VirtualDubMod build 2542/release

    Видео
    Идентификатор : 0
    Формат : MPEG-4 Visual
    Профиль формата : Advanced Simple@L5
    Параметр BVOP формата : 1
    Параметр QPel формата : Нет
    Параметр GMC формата : Без точки перехода
    Параметр матрицы формата : Выборочная
    Идентификатор кодека : XVID
    Идентификатор кодека/Подсказка : XviD
    Продолжительность : 1 ч. 31 м.
    Битрейт : 1820 Кбит/сек
    Ширина : 720 пикселей
    Высота : 400 пикселей
    Соотношение сторон : 16:9
    Частота кадров : 23,976 кадра/сек
    Цветовое пространство : YUV
    Субдискретизация насыщенности : 4:2:0
    Битовая глубина : 8 бит
    Тип развёртки : Прогрессивная
    Метод сжатия : С потерями
    Бит/(Пиксели*Кадры) : 0.264
    Размер потока : 1,16 Гбайт (80%)
    Библиотека кодирования : XviD 73

    Аудио
    Идентификатор : 1
    Формат : AC-3
    Формат/Информация : Audio Coding 3
    Расширение режима : CM (complete main)
    Параметр Endianness формата : Big
    Идентификатор кодека : 2000
    Продолжительность : 1 ч. 31 м.
    Вид битрейта : Постоянный
    Битрейт : 448 Кбит/сек
    Каналы : 6 каналов
    Расположение каналов : Front: L C R, Side: L R, LFE
    Частота : 48,0 КГц
    Битовая глубина : 16 бит
    Метод сжатия : С потерями
    Размер потока : 294 Мбайт (20%)
    Выравнивание : Разделение по промежуткам
    Продолжительность промежутка : 42 мс. (1,00 видеокадр)
    Время предзагрузки промежутка : 500 мс.

    Скриншоты для ознакомления:



    Залил: avproh
    Размер скачиваемого торрента: 1.46 GB (1564227584 Bytes)

    Корона и дракон / The Crown and the Dragon (2013) BDRip от New-Team | P | лицензия скачать через торрент бесплатно
    загрузка...
    Рейтинг →
     (голосов: 1, оценка 3/5, голосовать можно 1 раз )

    Другие торренты по теме:

  • Корона и дракон / The Crown and the Dragon (2013) BDRip 720p | L1
  • Корона и дракон / The Crown and the Dragon (2013) BDRip-AVC от New-Team | P | лицензия скачать через торрент бесплатно
  • Корона и дракон / The Crown and the Dragon (2013) BDRip 1080p от New-Team | P | лицензия скачать через торрент бесплатно
  • Корона и дракон / The Crown and the Dragon (2013) BDRemux 1080p от New-Team | P | лицензия скачать через торрент бесплатно
  • Корона и дракон / The Crown and the Dragon (2013) BDRip 720p от New-Team | P | лицензия скачать через торрент бесплатно
  • Корона и дракон / The Crown and the Dragon (2013) DVD5 R5 от New-Team | P | лицензи
  • Любовь и корона скачать через торрент бесплатно


    • Комментарии (0):

      Информация

      Информация

        Посетители, находящиеся в группе Гости, не могут оставлять комментарии в данной новости.

        ↓ Меню



        ↓ Опрос

        А Вы добавили сайт в закладки?
        Да
        Не


        Top 10 за месяц (Фильмы)