.
Авторизация | Регистрация
Хочешь лучшие торренты? Добавь свой email!
Добавить
» » Пульс / Pulse (2006) BDRemux 1080p от ExKinoRay | D скачать через торрент бесплатно




    Пульс / Pulse (2006) BDRemux 1080p от ExKinoRay | D скачать через торрент бесплатно

    Опубликовал: Админ | Дата: 27-02-2015, 11:10 | Просмотров: 183



    Детально о кино

    Русское название: Пульс
    Русское название в мировом прокате: Pulse
    Создали в: 2006
    Категория жанра: Ужасы, фантастика, триллер, ремейк
    Снималось в: США, Distant Horizons, Neo Art Logic, The Weinstein Company LLC
    Главный режиссер: Джим Сонзеро
    Актеры: Кристен Белл, Иэн Сомерхолдер, Кристина Милиан, Рик Гонзалез, Джонатан Такер, Сэмм Ливайн, Октавия Спенсер, Рон Рифкин, Джозеф Гатт, Кел О’Нил, Зэк Гренье, Рики Линдхоум, Джон Бурк, Майк Дж. Риган, Стив Том, Роберт Клотуорти, Мойра Прайс, Ди Квон, Брэд Дуриф, Кристин Барджер


    Сюжет фильма: Представьте себе, что беспроводные технологии могут связывать человека не только с кем-либо находящимся на другом конце земного шара, но и с другим миром. Миром мертвых. Представьте, что ваш сотовый телефон или ваша электронная почта - дверь. И когда вы звоните по мобильному, или работаете с e-mail, эта дверь открывается, и в наш мир проникают они. Они уже умерли. И они могут сделать так, что умрете и вы. Спрятаться негде, убежать невозможно. Вы уже заражены.





    Файл

    Качество фильма: Blu-Ray Remux (1080p)
    Информация о видео: MPEG-4 AVC, 24126 Кбит/с, 1920х1080, 23.976 кадр/с
    Информация о звуке: Русский (AC3, 6 ch, 640 Кбит/с), (DTS, 6 ch, 768 Кбит/с), английский (True-HD, 6 ch, 1347 Кбит/с)
    Размер скачиваемого торрента: 16.53 ГБ
    Время просмотра: 01:28:10
    Перевод текста: Дублированный
    Субтитры: Русские, английские


    За исходник, большое спасибо BLUEBIRD
    Сохранены оригинальные чаптеры как на Blu-Ray.
    -------------------------------------------------------------------------------
    Аудио1: Русский (AC3, 6 ch, 640 Кбит/с) - Дублированный
    Аудио2: Русский (DTS, 6 ch, 768 Кбит/с) - Дублированный


    Инфо-файл

    Общее
    Уникальный идентификатор : 225654588032559098959055888420647427759 (0xA9C37E29527D57F2AF68D81ECB9B5EAF)
    Полное имя : D:ЗагрузкиPulse.2006.BDRemux.(1080p).ExKinoRay.mkv
    Формат : Matroska
    Версия формата : Version 2
    Размер файла : 16,5 Гбайт
    Продолжительность : 1 ч. 28 м.
    Режим общего битрейта : Переменный
    Общий поток : 26,8 Мбит/сек
    Название фильма : Пульс.2006.Сборкa: ollan
    Дата кодирования : UTC 2014-04-26 16:18:08
    Программа кодирования : mkvmerge v5.6.0 (;Kenya Kane;) built on May 27 2012 16:44:04
    Библиотека кодирования : libebml v1.2.3 + libmatroska v1.3.0

    Видео
    Идентификатор : 1
    Формат : AVC
    Формат/Информация : Advanced Video Codec
    Профиль формата : High@L4.1
    Параметр CABAC формата : Да
    Параметр ReFrames формата : 4 кадра
    Идентификатор кодека : V_MPEG4/ISO/AVC
    Продолжительность : 1 ч. 28 м.
    Вид битрейта : Переменный
    Максимальный битрейт : 36,0 Мбит/сек
    Ширина : 1920 пикселей
    Высота : 1080 пикселей
    Соотношение сторон : 16:9
    Режим частоты кадров : Постоянный
    Частота кадров : 23,976 кадра/сек
    Цветовое пространство : YUV
    Субдискретизация насыщенности : 4:2:0
    Битовая глубина : 8 бит
    Тип развёртки : Прогрессивная
    Default : Да
    Forced : Нет
    Основные цвета : BT.709
    Характеристики трансфера : BT.709
    Коэффициенты матрицы : BT.709

    Аудио #1
    Идентификатор : 2
    Формат : AC-3
    Формат/Информация : Audio Coding 3
    Расширение режима : CM (complete main)
    Параметр Endianness формата : Big
    Идентификатор кодека : A_AC3
    Продолжительность : 1 ч. 28 м.
    Вид битрейта : Постоянный
    Битрейт : 640 Кбит/сек
    Каналы : 6 каналов
    Расположение каналов : Front: L C R, Side: L R, LFE
    Частота : 48,0 КГц
    Битовая глубина : 16 бит
    Метод сжатия : С потерями
    Размер потока : 404 Мбайт (2%)
    Заголовок : Дублированный
    Язык : Russian
    Default : Да
    Forced : Нет

    Аудио #2
    Идентификатор : 3
    Формат : DTS
    Формат/Информация : Digital Theater Systems
    Режим : 16
    Параметр Endianness формата : Big
    Идентификатор кодека : A_DTS
    Продолжительность : 1 ч. 28 м.
    Вид битрейта : Постоянный
    Битрейт : 768 Кбит/сек
    Каналы : 6 каналов
    Расположение каналов : Front: L C R, Side: L R, LFE
    Частота : 48,0 КГц
    Битовая глубина : 24 бит
    Метод сжатия : С потерями
    Размер потока : 484 Мбайт (3%)
    Заголовок : Дублированный
    Язык : Russian
    Default : Нет
    Forced : Нет

    Аудио #3
    Идентификатор : 4
    Формат : TrueHD
    Идентификатор кодека : A_TRUEHD
    Продолжительность : 1 ч. 28 м.
    Вид битрейта : Переменный
    Максимальный битрейт : 4455 Кбит/сек
    Каналы : 6 каналов
    Расположение каналов : Front: L C R, Side: L R, LFE
    Частота : 48,0 КГц
    Метод сжатия : Без потерь
    Язык : English
    Default : Нет
    Forced : Нет

    Текст #1
    Идентификатор : 5
    Формат : UTF-8
    Идентификатор кодека : S_TEXT/UTF8
    Идентификатор кодека/Информация : UTF-8 Plain Text
    Язык : Russian
    Default : Нет
    Forced : Нет

    Текст #2
    Идентификатор : 6
    Формат : UTF-8
    Идентификатор кодека : S_TEXT/UTF8
    Идентификатор кодека/Информация : UTF-8 Plain Text
    Язык : English
    Default : Нет
    Forced : Нет

    Меню
    00:00:00.000 : :Chapter 01
    00:06:08.409 : :Chapter 02
    00:11:35.361 : :Chapter 03
    00:16:50.592 : :Chapter 04
    00:20:42.616 : :Chapter 05
    00:25:13.053 : :Chapter 06
    00:30:08.765 : :Chapter 07
    00:37:05.348 : :Chapter 08
    00:40:38.727 : :Chapter 09
    00:44:49.520 : :Chapter 10
    00:50:19.850 : :Chapter 11
    00:53:03.430 : :Chapter 12
    00:56:49.948 : :Chapter 13
    01:02:08.266 : :Chapter 14
    01:09:31.208 : :Chapter 15
    01:18:45.846 : :Chapter 16
    01:28:09.867 : :Chapter 17



    Скриншоты для ознакомления







    Релиз подготовил: Сборка:
    Залил: ollan
    Размер скачиваемого торрента: 16.53 GB (17750515195 Bytes)

    Пульс / Pulse (2006) BDRemux 1080p от ExKinoRay | D скачать через торрент бесплатно
    загрузка...
    Рейтинг →
     (голосов: 1, оценка 5/5, голосовать можно 1 раз )

    Другие торренты по теме:

  • Сборник - Пульс 01-04 (1985-1986) MP3
  • Пульс / Pulse (2006) HDRip-AVC
  • VA - Пульс 01-04 (1985-1986) MP3
  • DMS - Пульс (2012) MP3
  • Пульс 3 / Pulse 3 (2008) BDRip 1080p от msltel
  • Зловещий священник / Пугающие до дрожи / Учащающий пульс / The Evil Clergyman / Pulse Pounders (1988) DVDRip-AVC | A
  • Пульс / Pulse (2006) BDRip-AVC от HQCLUB
  • Арсенал - Пульс 3 (Серия Музыка и Спорт) (1986) MP3


    • Комментарии (0):

      Информация

      Информация

        Посетители, находящиеся в группе Гости, не могут оставлять комментарии в данной новости.

        ↓ Меню



        ↓ Опрос

        А Вы добавили сайт в закладки?
        Да
        Не


        Top 10 за месяц (Фильмы)