.
Авторизация | Регистрация
» » Подержанные автомобили / Used Cars (1980) BDRip by msltel | P, A скачать через торрент бесплатно




    Подержанные автомобили / Used Cars (1980) BDRip by msltel | P, A скачать через торрент бесплатно

    Опубликовал: Админ | Дата: 27-02-2015, 11:10 | Просмотров: 180



    Русское название: Подержанные автомобили
    Русское название в мировом прокате: Used Cars
    Создали в: 1980
    Категория жанра: Комедия
    Снималось в: США, A-Team, Columbia Pictures Corporation
    Главный режиссер: Роберт Земекис
    Актеры: Курт Расселл, Джек Уорден, Геррит Грэм, Фрэнк МакРей, Дебора Хэрмон, Джо Флаэрти, Дэвид Л. Лэндер, Майкл МакКин, Майкл Толбот, Гарри Нортап, Альфонсо Арау, Аль Льюис, Вудроу Парфри, Эндрю Дункан, Даб Тейлор, Клод Эрл Джонс, Дэн Бэрроус, Шерил Риксон, Уэнди Джо Спербер, Марк МакКлюр, Сьюзэн Донован, Дон Рускин, Трэйси Ли Роу, Кертис Сандерс, Клинт Лиллей, Патрик МакМорроу, Дайан Хилл, Дик Миллер, Рита Таггарт, Дэйв Херрера, Уолтер Джексон, Джин Блэйкли, Бетти Томас, Расс Фега, Тайни Уэллс, Теренс Нокс, Уилл МакМиллан, Джозиа Стейнер, Дуглас О. Теппер, Дэйв Адамс, Фрэнк Хэрмон, Аллен Вуд, Джон М. Эбботт, Билл Уайн, Филлип Гринвуд

    Сюжет фильма: Продавец подержанных автомобилей Руди Руссо, работающий в магазине старика Люка Фукса, беззастенчиво переманивает клиентов у конкурента Роя Фукса, брата Люка. Однажды терпению Роя приходит конец, и он решает разом избавиться от надоевшего соседства и поправить своё финансовое положение. Но и Руди, мечтающий занять место в сенате штата, тоже озабочен поисками крупной суммы денег на предвыборную кампанию. Однако судьба наносит ему сокрушительный удар с совершенно неожиданной стороны…

    Качество фильма: BDRip
    Размер скачиваемого торрента: 2.51 ГБ
    Время просмотра: 01:52:40

    Информация о видео: XviD, 1899 Кбит/с, 720x384
    Информация о звуке 1: русский, 48 kHz, AC3, 2 ch, 192 kbps avg, Профессиональный многоголосый
    Информация о звуке 2: русский, 48 kHz, AC3, 2 ch, 192 kbps avg, Авторский, Константин Филонов

    Внешние файлы
    Информация о звуке: русский, 48 kHz, AC3, 6 ch, 448 kbps avg, Авторский, Юрий Живов
    Информация о звуке: английский, 48 kHz, AC3, 6 ch, 448 kbps avg, Оригинал
    Субтитры: английские (для слабослышащих)

    Исходник: delo2006 (HDtracker)

    Сравнение с исходником



    MediaInfo
    Общее
    Полное имя : D:VideoPodergannye avto.1980.XviD.BDRipPodergannye avto.1980.AVO.rus.Ю.Живов.ac3
    Формат : AC-3
    Формат/Информация : Audio Coding 3
    Размер файла : 361 Мбайт
    Продолжительность : 1 ч. 52 м.
    Режим общего битрейта : Постоянный
    Общий поток : 448 Кбит/сек

    Аудио
    Формат : AC-3
    Формат/Информация : Audio Coding 3
    Расширение режима : CM (complete main)
    Параметр Endianness формата : Big
    Продолжительность : 1 ч. 52 м.
    Вид битрейта : Постоянный
    Битрейт : 448 Кбит/сек
    Каналы : 6 каналов
    Расположение каналов : Front: L C R, Side: L R, LFE
    Частота : 48,0 КГц
    Битовая глубина : 16 бит
    Метод сжатия : С потерями
    Размер потока : 361 Мбайт (100%)

    Общее
    Полное имя : D:VideoPodergannye avto.1980.XviD.BDRipPodergannye avto.1980.eng.SDH.srt
    Размер файла : 253 Кбайт

    Общее
    Полное имя : D:VideoPodergannye avto.1980.XviD.BDRipPodergannye avto.1980.Original.eng.ac3
    Формат : AC-3
    Формат/Информация : Audio Coding 3
    Размер файла : 361 Мбайт
    Продолжительность : 1 ч. 52 м.
    Режим общего битрейта : Постоянный
    Общий поток : 448 Кбит/сек

    Аудио
    Формат : AC-3
    Формат/Информация : Audio Coding 3
    Расширение режима : CM (complete main)
    Параметр Endianness формата : Big
    Продолжительность : 1 ч. 52 м.
    Вид битрейта : Постоянный
    Битрейт : 448 Кбит/сек
    Каналы : 6 каналов
    Расположение каналов : Front: L C R, Side: L R, LFE
    Частота : 48,0 КГц
    Битовая глубина : 16 бит
    Метод сжатия : С потерями
    Размер потока : 361 Мбайт (100%)

    Общее
    Полное имя : D:VideoPodergannye avto.1980.XviD.BDRipPodergannye avto.1980.XviD.BDRip.avi
    Формат : AVI
    Формат/Информация : Audio Video Interleave
    Размер файла : 1,81 Гбайт
    Продолжительность : 1 ч. 52 м.
    Общий поток : 2298 Кбит/сек
    Программа кодирования : VirtualDubMod 1.5.10.2 (build 2540/release)
    Библиотека кодирования : VirtualDubMod build 2540/release

    Видео
    Идентификатор : 0
    Формат : MPEG-4 Visual
    Профиль формата : Advanced Simple@L5
    Параметр BVOP формата : 1
    Параметр QPel формата : Нет
    Параметр GMC формата : Без точки перехода
    Параметр матрицы формата : Default (H.263)
    Режим смешивания : Сжатый битовый поток
    Идентификатор кодека : XVID
    Идентификатор кодека/Подсказка : XviD
    Продолжительность : 1 ч. 52 м.
    Битрейт : 1899 Кбит/сек
    Ширина : 720 пикселей
    Высота : 384 пикселя
    Соотношение сторон : 1,85:1
    Частота кадров : 23,976 кадра/сек
    Цветовое пространство : YUV
    Субдискретизация насыщенности : 4:2:0
    Битовая глубина : 8 бит
    Тип развёртки : Прогрессивная
    Метод сжатия : С потерями
    Бит/(Пиксели*Кадры) : 0.287
    Размер потока : 1,49 Гбайт (83%)
    Библиотека кодирования : XviD 1.2.1 (UTC 2008-12-04)

    Аудио #1
    Идентификатор : 1
    Формат : AC-3
    Формат/Информация : Audio Coding 3
    Расширение режима : CM (complete main)
    Параметр Endianness формата : Big
    Идентификатор кодека : 2000
    Продолжительность : 1 ч. 52 м.
    Вид битрейта : Постоянный
    Битрейт : 192 Кбит/сек
    Каналы : 2 канала
    Расположение каналов : Front: L R
    Частота : 48,0 КГц
    Битовая глубина : 16 бит
    Метод сжатия : С потерями
    Размер потока : 155 Мбайт (8%)
    Выравнивание : Разделение по промежуткам
    Продолжительность промежутка : 42 мс. (1,00 видеокадр)
    Время предзагрузки промежутка : 500 мс.

    Аудио #2
    Идентификатор : 2
    Формат : AC-3
    Формат/Информация : Audio Coding 3
    Расширение режима : CM (complete main)
    Параметр Endianness формата : Big
    Идентификатор кодека : 2000
    Продолжительность : 1 ч. 52 м.
    Вид битрейта : Постоянный
    Битрейт : 192 Кбит/сек
    Каналы : 2 канала
    Расположение каналов : Front: L R
    Частота : 48,0 КГц
    Битовая глубина : 16 бит
    Метод сжатия : С потерями
    Размер потока : 155 Мбайт (8%)
    Выравнивание : Разделение по промежуткам
    Продолжительность промежутка : 42 мс. (1,00 видеокадр)
    Время предзагрузки промежутка : 500 мс.
    Скриншоты для ознакомления


    Залил: msltel
    Размер скачиваемого торрента: 2.51 GB (2699304724 Bytes)

    Подержанные автомобили / Used Cars (1980) BDRip by msltel | P, A скачать через торрент бесплатно
    загрузка...
    Рейтинг →
     (голосов: 1, оценка 4/5, голосовать можно 1 раз )

    Другие торренты по теме:

  • Подержанные автомобили / Used Cars (1980) BDRip-AVC от MediaClub скачать через торрент бесплатно
  • Подержанные автомобили / Used Cars (1980) BDRip 720p by msltel | P, A скачать через торрент бесплатно
  • Подержанные автомобили / Used Cars (1980) BDRip 1080p by msltel | P, A торрент скачать бесплатно
  • Подержанные автомобили / Used Cars (1980) BDRip от HQCLUB скачать через торрент бесплатно
  • Подержанные автомобили / Used Cars (1980) BDRip от SKS | КПК скачать торрент бесплатно
  • Подержанные автомобили / Used Cars (1980) BDRip-AVC от MediaClub скачать торрент бесплатно


    • Комментарии (0):

      Информация

      Информация

        Посетители, находящиеся в группе Гости, не могут оставлять комментарии в данной новости.

        ↓ Меню



        ↓ Опрос

        А Вы добавили сайт в закладки?
        Да
        Не


        Top 10 за неделю (Фильмы)