.
Авторизация | Регистрация
Хочешь лучшие торренты? Добавь свой email!
Добавить
» » Машина времени / The Time Machine (2002) HDRip by msltel | D, P, P2, A скачать через торрент бесплатно


    Машина времени / The Time Machine (2002) HDRip by msltel | D, P, P2, A скачать через торрент бесплатно

    Опубликовал: Админ | Дата: 27-02-2015, 11:10 | Просмотров: 210



    Русское название: Машина времени
    Русское название в мировом прокате: The Time Machine
    Создали в: 2002
    Категория жанра: Фантастика, боевик, приключения
    Снималось в: США, Arnold Leibovit Entertainment, DreamWorks SKG, Parkes/MacDonald Productions, Warner Bros. Pictures
    Главный режиссер: Саймон Уэллс
    Актеры: Гай Пирс, Саманта Мамба, Орландо Джонс, Марк Эдди, Джереми Айронс, Сиенна Гиллори, Макс Бейкер, Филлида Ло, Лаура Кирк, Джош Стэмберг, Джон В. Момроу, Джеффри М. Мейер, Алан Янг, Минди Крист, Конни Рэй, Ленни Лофтин, Томас Кори Робинсон, Омеро Мамба, Янси Ариас, Ричард Цетрон, Эдвард Конна, Крис Сэйор, Джереми Фицджералд, Крэйг Дэвис, Грэйди Холдер, Брайан Фрайдэй

    Сюжет фильма: Профессор Александр Хартдеген изобрёл машину времени и отправился в прошлое спасти свою невесту от случайной пули. Но её смерть предотвратить не удалось - прошлое нельзя изменить. В поисках ответа на вопрос почему? Хартдеген забирается на двести лет в будущее и застает Землю в ужасающем состоянии. Получив ранение и впав в беспамятство, он и не заметил, как его машина прошла сквозь восемьсот тысяч лет истории планеты Земля - человечество изменилось, эпоха технократии канула в лету.

    Качество фильма: HDRip
    Размер скачиваемого торрента: 3.33 ГБ
    Время просмотра: 01:35:44

    Информация о видео: XviD, 1576 Кбит/с, 720x304
    Информация о звуке 1: русский, 48 kHz, AC3, 6 ch, 448 kbps avg, Дублированный
    Информация о звуке 2: русский, 48 kHz, AC3, 6 ch, 384 kbps avg, Профессиональный многоголосый, вариант 2
    Информация о звуке 3: русский, 48 kHz, AC3, 6 ch, 384 kbps avg, Профессиональный двухголосый, Пётр Гланц и Инна Королёва

    Внешние файлы
    Информация о звуке: русский, 48 kHz, AC3, 6 ch, 448 kbps avg, Профессиональный многоголосый, вариант 1
    Информация о звуке: русский, 48 kHz, AC3, 2 ch, 384 kbps avg, Авторский, Векшин
    Информация о звуке: русский, 48 kHz, AC3, 6 ch, 448 kbps avg, Авторский, Леонид Володарский
    Информация о звуке: русский, 48 kHz, AC3, 6 ch, 448 kbps avg, Авторский, Сергей Кузнецов
    Информация о звуке: английский, 48 kHz, AC3, 6 ch, 448 kbps avg, Оригинал
    Субтитры: русские
    Субтитры: английские

    Исходник: Sergei7721 (Кинозал)

    Сравнение с исходником



    MediaInfo
    Общее
    Полное имя : D:VideoMashina vremeni.2002.XviD.HDRipMashina vremeni.2002.AVO.rus.Векшин.ac3
    Формат : AC-3
    Формат/Информация : Audio Coding 3
    Размер файла : 255 Мбайт
    Продолжительность : 1 ч. 32 м.
    Режим общего битрейта : Постоянный
    Общий поток : 384 Кбит/сек

    Аудио
    Формат : AC-3
    Формат/Информация : Audio Coding 3
    Расширение режима : CM (complete main)
    Параметр Endianness формата : Big
    Продолжительность : 1 ч. 32 м.
    Вид битрейта : Постоянный
    Битрейт : 384 Кбит/сек
    Каналы : 2 канала
    Расположение каналов : Front: L R
    Частота : 48,0 КГц
    Битовая глубина : 16 бит
    Метод сжатия : С потерями
    Размер потока : 255 Мбайт (100%)

    Общее
    Полное имя : D:VideoMashina vremeni.2002.XviD.HDRipMashina vremeni.2002.AVO.rus.Л.Володарский.ac3
    Формат : AC-3
    Формат/Информация : Audio Coding 3
    Размер файла : 307 Мбайт
    Продолжительность : 1 ч. 35 м.
    Режим общего битрейта : Постоянный
    Общий поток : 448 Кбит/сек

    Аудио
    Формат : AC-3
    Формат/Информация : Audio Coding 3
    Расширение режима : CM (complete main)
    Параметр Endianness формата : Big
    Продолжительность : 1 ч. 35 м.
    Вид битрейта : Постоянный
    Битрейт : 448 Кбит/сек
    Каналы : 6 каналов
    Расположение каналов : Front: L C R, Side: L R, LFE
    Частота : 48,0 КГц
    Битовая глубина : 16 бит
    Метод сжатия : С потерями
    Размер потока : 307 Мбайт (100%)

    Общее
    Полное имя : D:VideoMashina vremeni.2002.XviD.HDRipMashina vremeni.2002.AVO.rus.С.Кузнецов.ac3
    Формат : AC-3
    Формат/Информация : Audio Coding 3
    Размер файла : 307 Мбайт
    Продолжительность : 1 ч. 35 м.
    Режим общего битрейта : Постоянный
    Общий поток : 448 Кбит/сек

    Аудио
    Формат : AC-3
    Формат/Информация : Audio Coding 3
    Расширение режима : CM (complete main)
    Параметр Endianness формата : Big
    Продолжительность : 1 ч. 35 м.
    Вид битрейта : Постоянный
    Битрейт : 448 Кбит/сек
    Каналы : 6 каналов
    Расположение каналов : Front: L C R, Side: L R, LFE
    Частота : 48,0 КГц
    Битовая глубина : 16 бит
    Метод сжатия : С потерями
    Размер потока : 307 Мбайт (100%)

    Общее
    Полное имя : D:VideoMashina vremeni.2002.XviD.HDRipMashina vremeni.2002.eng.srt
    Размер файла : 87,0 Кбайт

    Общее
    Полное имя : D:VideoMashina vremeni.2002.XviD.HDRipMashina vremeni.2002.MVO.rus.ac3
    Формат : AC-3
    Формат/Информация : Audio Coding 3
    Размер файла : 307 Мбайт
    Продолжительность : 1 ч. 35 м.
    Режим общего битрейта : Постоянный
    Общий поток : 448 Кбит/сек

    Аудио
    Формат : AC-3
    Формат/Информация : Audio Coding 3
    Расширение режима : CM (complete main)
    Параметр Endianness формата : Big
    Продолжительность : 1 ч. 35 м.
    Вид битрейта : Постоянный
    Битрейт : 448 Кбит/сек
    Каналы : 6 каналов
    Расположение каналов : Front: L C R, Side: L R, LFE
    Частота : 48,0 КГц
    Битовая глубина : 16 бит
    Метод сжатия : С потерями
    Размер потока : 307 Мбайт (100%)

    Общее
    Полное имя : D:VideoMashina vremeni.2002.XviD.HDRipMashina vremeni.2002.Original.eng.ac3
    Формат : AC-3
    Формат/Информация : Audio Coding 3
    Размер файла : 307 Мбайт
    Продолжительность : 1 ч. 35 м.
    Режим общего битрейта : Постоянный
    Общий поток : 448 Кбит/сек

    Аудио
    Формат : AC-3
    Формат/Информация : Audio Coding 3
    Расширение режима : CM (complete main)
    Параметр Endianness формата : Big
    Продолжительность : 1 ч. 35 м.
    Вид битрейта : Постоянный
    Битрейт : 448 Кбит/сек
    Каналы : 6 каналов
    Расположение каналов : Front: L C R, Side: L R, LFE
    Частота : 48,0 КГц
    Битовая глубина : 16 бит
    Метод сжатия : С потерями
    Размер потока : 307 Мбайт (100%)

    Общее
    Полное имя : D:VideoMashina vremeni.2002.XviD.HDRipMashina vremeni.2002.rus.srt
    Размер файла : 95,0 Кбайт

    Общее
    Полное имя : D:VideoMashina vremeni.2002.XviD.HDRipMashina vremeni.2002.XviD.HDRip.avi
    Формат : AVI
    Формат/Информация : Audio Video Interleave
    Размер файла : 1,88 Гбайт
    Продолжительность : 1 ч. 35 м.
    Общий поток : 2811 Кбит/сек
    Программа кодирования : VirtualDubMod 1.5.10.2 (build 2540/release)
    Библиотека кодирования : VirtualDubMod build 2540/release

    Видео
    Идентификатор : 0
    Формат : MPEG-4 Visual
    Профиль формата : Advanced Simple@L5
    Параметр BVOP формата : 1
    Параметр QPel формата : Нет
    Параметр GMC формата : Без точки перехода
    Параметр матрицы формата : Default (H.263)
    Режим смешивания : Сжатый битовый поток
    Идентификатор кодека : XVID
    Идентификатор кодека/Подсказка : XviD
    Продолжительность : 1 ч. 35 м.
    Битрейт : 1576 Кбит/сек
    Ширина : 720 пикселей
    Высота : 304 пикселя
    Соотношение сторон : 2,35:1
    Частота кадров : 23,976 кадра/сек
    Цветовое пространство : YUV
    Субдискретизация насыщенности : 4:2:0
    Битовая глубина : 8 бит
    Тип развёртки : Прогрессивная
    Метод сжатия : С потерями
    Бит/(Пиксели*Кадры) : 0.300
    Размер потока : 1,05 Гбайт (56%)
    Библиотека кодирования : XviD 1.2.1 (UTC 2008-12-04)

    Аудио #1
    Идентификатор : 1
    Формат : AC-3
    Формат/Информация : Audio Coding 3
    Расширение режима : CM (complete main)
    Параметр Endianness формата : Big
    Идентификатор кодека : 2000
    Продолжительность : 1 ч. 35 м.
    Вид битрейта : Постоянный
    Битрейт : 448 Кбит/сек
    Каналы : 6 каналов
    Расположение каналов : Front: L C R, Side: L R, LFE
    Частота : 48,0 КГц
    Битовая глубина : 16 бит
    Метод сжатия : С потерями
    Размер потока : 307 Мбайт (16%)
    Выравнивание : Разделение по промежуткам
    Продолжительность промежутка : 42 мс. (1,00 видеокадр)
    Время предзагрузки промежутка : 500 мс.

    Аудио #2
    Идентификатор : 2
    Формат : AC-3
    Формат/Информация : Audio Coding 3
    Расширение режима : CM (complete main)
    Параметр Endianness формата : Big
    Идентификатор кодека : 2000
    Продолжительность : 1 ч. 35 м.
    Вид битрейта : Постоянный
    Битрейт : 384 Кбит/сек
    Каналы : 6 каналов
    Расположение каналов : Front: L C R, Side: L R, LFE
    Частота : 48,0 КГц
    Битовая глубина : 16 бит
    Метод сжатия : С потерями
    Размер потока : 263 Мбайт (14%)
    Выравнивание : Разделение по промежуткам
    Продолжительность промежутка : 42 мс. (1,00 видеокадр)
    Время предзагрузки промежутка : 500 мс.

    Аудио #3
    Идентификатор : 3
    Формат : AC-3
    Формат/Информация : Audio Coding 3
    Расширение режима : CM (complete main)
    Параметр Endianness формата : Big
    Идентификатор кодека : 2000
    Продолжительность : 1 ч. 35 м.
    Вид битрейта : Постоянный
    Битрейт : 384 Кбит/сек
    Каналы : 6 каналов
    Расположение каналов : Front: L C R, Side: L R, LFE
    Частота : 48,0 КГц
    Битовая глубина : 16 бит
    Метод сжатия : С потерями
    Размер потока : 263 Мбайт (14%)
    Выравнивание : Разделение по промежуткам
    Продолжительность промежутка : 42 мс. (1,00 видеокадр)
    Время предзагрузки промежутка : 500 мс.
    Скриншоты для ознакомления


    Залил: msltel
    Размер скачиваемого торрента: 3.33 GB (3573079306 Bytes)

    Машина времени / The Time Machine (2002) HDRip by msltel | D, P, P2, A скачать через торрент бесплатно
    загрузка...
    Рейтинг →
     (голосов: 1, оценка 5/5, голосовать можно 1 раз )

    Другие торренты по теме:

  • Машина Времени и Воскресение 50 лет на двоих (2000-2004) DVDRip-AVC
  • OST - Машина времени / The Time Machine (1960) MP3
  • Машина Времени. Ловушка (2010) PC | Repack от R.G. UPG
  • Машина Времени и Воскресение - 50 лет на двоих в Кремле (2000) DVDRip
  • Тачки: Байки Мэтра - Мэтр - машина времени / Time Travel Mater (2012) BDRip 1080p
  • Машина времени в джакузи / Hot Tub Time Machine (2010) BDRip
  • Машина времени в джакузи / Hot Tub Time Machine (2010) HDRip-AVC | D
  • Машина времени в джакузи / Hot Tub Time Machine (2010) HDRip от Scarabey | D | Театральная версия


    • Комментарии (0):

      Информация

      Информация

        Посетители, находящиеся в группе Гости, не могут оставлять комментарии в данной новости.

        ↓ Меню



        ↓ Опрос

        А Вы добавили сайт в закладки?
        Да
        Не


        Top 10 за месяц (Фильмы)