.
Авторизация | Регистрация
Хочешь лучшие торренты? Добавь свой email!
Добавить
» » Свидания в Париже / Les Rendez-vous de Paris (1995) BDRip by msltel | A скачать через торрент бесплатно




    Свидания в Париже / Les Rendez-vous de Paris (1995) BDRip by msltel | A скачать через торрент бесплатно

    Опубликовал: Админ | Дата: 27-02-2015, 11:10 | Просмотров: 170



    Русское название: Свидания в Париже
    Русское название в мировом прокате: Les Rendez-vous de Paris
    Создали в: 1995
    Категория жанра: Мелодрама, комедия
    Снималось в: Франция, Canal+ fr, Compagnie Eric Rohmer (CER)
    Главный режиссер: Эрик Ромер
    Актеры: Клара Беллар, Антуан Баслер, Матиас Мегард, Малкольм Конрат, Оливье Пужоль, Серж Ренко, Майкл Крафт

    Сюжет фильма: Фильм состоит из трёх отдельных новелл, действие которых происходит на улицах, скверах и музее Парижа. Свидание в Париже может оказаться приятной неожиданностью или обернуться недоразумением, — поют уличные музыканты. В первой новелле обычная неприятность (украденный кошелёк) позволяют Эстер разобраться в своих взаимоотношениях с Горацио. Во второй новелле флирт и любовь ходят рука об руку и кому-то одному, в конце концов, будет больно. В третьей новелле художник влюбляется в обычную прохожую девушку и болтает с ней о своих женщинах и картинах.

    Качество фильма: BDRip
    Информация о видео: XviD, 1999 Kбит/с, 704x416
    Информация о звуке: Русский (AC3, 2 ch, 192 Кбит/с), французский (AC3, 1 ch, 192 Кбит/с)
    Размер скачиваемого торрента: 1.58 ГБ
    Время просмотра: 01:34:21
    Перевод текста: Авторский (Андрей Дольский)
    Субтитры: Английские

    Исходник: posodobl (Кинозал)

    Сравнение с исходником



    Награды
    Европейская киноакадемия, 1995 год
    Номинации (1):
    Лучший фильм
    MediaInfo
    Общее
    Полное имя : D:VideoSvidanija v Parige.1995.XviD.BDRipSvidanija v Parige.1995.eng.srt
    Формат : SubRip
    Размер файла : 96,9 Кбайт

    Текст
    Формат : SubRip
    Метод сжатия : Без потерь

    Общее
    Полное имя : D:VideoSvidanija v Parige.1995.XviD.BDRipSvidanija v Parige.1995.Original.fre.ac3
    Формат : AC-3
    Формат/Информация : Audio Coding 3
    Размер файла : 130 Мбайт
    Продолжительность : 1 ч. 34 м.
    Режим общего битрейта : Постоянный
    Общий поток : 192 Кбит/сек

    Аудио
    Формат : AC-3
    Формат/Информация : Audio Coding 3
    Расширение режима : CM (complete main)
    Параметр Endianness формата : Big
    Продолжительность : 1 ч. 34 м.
    Вид битрейта : Постоянный
    Битрейт : 192 Кбит/сек
    Каналы : 1 канал
    Расположение каналов : Front: C
    Частота : 48,0 КГц
    Битовая глубина : 16 бит
    Метод сжатия : С потерями
    Размер потока : 130 Мбайт (100%)

    Общее
    Полное имя : D:VideoSvidanija v Parige.1995.XviD.BDRipSvidanija v Parige.1995.XviD.BDRip.avi
    Формат : AVI
    Формат/Информация : Audio Video Interleave
    Размер файла : 1,45 Гбайт
    Продолжительность : 1 ч. 34 м.
    Общий поток : 2200 Кбит/сек
    Программа кодирования : VirtualDubMod 1.5.10.2 (build 2540/release)
    Библиотека кодирования : VirtualDubMod build 2540/release

    Видео
    Идентификатор : 0
    Формат : MPEG-4 Visual
    Профиль формата : Advanced Simple@L5
    Параметр BVOP формата : 1
    Параметр QPel формата : Нет
    Параметр GMC формата : Без точки перехода
    Параметр матрицы формата : Default (H.263)
    Режим смешивания : Сжатый битовый поток
    Идентификатор кодека : XVID
    Идентификатор кодека/Подсказка : XviD
    Продолжительность : 1 ч. 34 м.
    Битрейт : 1999 Кбит/сек
    Ширина : 704 пикселя
    Высота : 416 пикселей
    Соотношение сторон : 1,692
    Частота кадров : 25,000 кадров/сек
    Цветовое пространство : YUV
    Субдискретизация насыщенности : 4:2:0
    Битовая глубина : 8 бит
    Тип развёртки : Прогрессивная
    Метод сжатия : С потерями
    Бит/(Пиксели*Кадры) : 0.273
    Размер потока : 1,32 Гбайт (91%)
    Библиотека кодирования : XviD 1.2.1 (UTC 2008-12-04)

    Аудио
    Идентификатор : 1
    Формат : AC-3
    Формат/Информация : Audio Coding 3
    Расширение режима : CM (complete main)
    Параметр Endianness формата : Big
    Идентификатор кодека : 2000
    Продолжительность : 1 ч. 34 м.
    Вид битрейта : Постоянный
    Битрейт : 192 Кбит/сек
    Каналы : 2 канала
    Расположение каналов : Front: L R
    Частота : 48,0 КГц
    Битовая глубина : 16 бит
    Метод сжатия : С потерями
    Размер потока : 130 Мбайт (9%)
    Выравнивание : Разделение по промежуткам
    Продолжительность промежутка : 40 мс. (1,00 видеокадр)
    Время предзагрузки промежутка : 500 мс.
    Скриншоты для ознакомления

    Залил: msltel
    Размер скачиваемого торрента: 1.58 GB (1693065146 Bytes)

    Свидания в Париже / Les Rendez-vous de Paris (1995) BDRip by msltel | A скачать через торрент бесплатно
    загрузка...
    Рейтинг →
     (голосов: 1, оценка 4/5, голосовать можно 1 раз )

    Другие торренты по теме:

  • Свидания в Париже / Les Rendez-vous de Paris (1995) BDRip 720p от MediaClub | A скачать через торрент бесплатно
  • Свидания в Париже / Les Rendez-vous de Paris (1995) BDRip-AVC от MediaClub | A
  • Свидания в Париже / Les Rendez-vous de Paris (1995) BDRip 1080p by msltel | A скачать через торрент бесплатно


    • Комментарии (0):

      Информация

      Информация

        Посетители, находящиеся в группе Гости, не могут оставлять комментарии в данной новости.

        ↓ Меню



        ↓ Опрос

        А Вы добавили сайт в закладки?
        Да
        Не


        Top 10 за месяц (Фильмы)