.
Авторизация | Регистрация
» » Глубинные Империи / Empires of the Deep (2014) | WEB-DLRip 720p | Трейлер | L1 торрент скачать бесплатно




    Глубинные Империи / Empires of the Deep (2014) | WEB-DLRip 720p | Трейлер | L1 торрент скачать бесплатно

    Опубликовал: Админ | Дата: 27-02-2015, 11:10 | Просмотров: 901



    Детально о кино
    Русское название: Глубинные Империи
    Русское название в мировом прокате: Empires of the Deep
    Создали в: 2014
    Категория жанра: Фантастика
    Главный режиссер: Майкл Френч, Скотт Миллер
    Актеры: Ольга Куриленко, Стив Политс, Макс Молион, Пьер Бурдо, Жан-Мишель Касанова, Ми Ян

    Сюжет фильма:
    История о том, как наделенный мистическими силами древнегреческий юноша по имени Атлас, спасая своего отца, попадает в подводный мир — мир русалок и подводных чудовищ, где и разворачиваются основные события картины.




    Снималось в: Китай, США
    Киностудия: China Film Group
    Время просмотра: 00.02.06
    Перевод текста: Любительский (одноголосый закадровый)
    Премьера: 2014 год

    Файл
    Кодек для видео: MPEG-4 (MP4)
    Качество фильма: WEB-DLRip 720p
    Информация о видео: avc1, 1280 x 558, ~1401 kbps
    Информация о звуке: AAC, 2 ch, 192 kbps
    Субтитры: нет

    А Знаете ли Вы?
    Что по заявлению создателей фильма, спецэффекты в этом фильме должны превзойти Аватар Кэмерона и на них была потрачена львиная доля от бюджета в $100 000 000
    MI
    Общее
    Полное имя : Empires_of_the_Deep_Rus.mp4
    Формат : MPEG-4
    Профиль формата : Base Media / Version 2
    Идентификатор кодека : mp42
    Размер файла : 24,1 Мбайт
    Продолжительность : 2 м. 6 с.
    Режим общего битрейта : Переменный
    Общий поток : 1596 Кбит/сек
    Дата кодирования : UTC 2013-12-15 23:25:28
    Дата пометки : UTC 2013-12-15 23:25:28
    gsst : 0
    gstd : 126850
    gssd : B4A7D6E47HH1398599216309671
    gshh : r8---sn-n8v7sn7e.googlevideo.com

    Видео
    Идентификатор : 1
    Формат : AVC
    Формат/Информация : Advanced Video Codec
    Профиль формата : High@L3.1
    Параметр CABAC формата : Да
    Параметр ReFrames формата : 1 кадр
    Идентификатор кодека : avc1
    Идентификатор кодека/Информация : Advanced Video Coding
    Продолжительность : 2 м. 6 с.
    Битрейт : 1401 Кбит/сек
    Максимальный битрейт : 2812 Кбит/сек
    Ширина : 1280 пикселей
    Высота : 558 пикселей
    Соотношение сторон : 2,25:1
    Режим частоты кадров : Постоянный
    Частота кадров : 25,000 кадров/сек
    Цветовое пространство : YUV
    Субдискретизация насыщенности : 4:2:0
    Битовая глубина : 8 бит
    Тип развёртки : Прогрессивная
    Бит/(Пиксели*Кадры) : 0.078
    Размер потока : 21,2 Мбайт (88%)
    Дата пометки : UTC 2013-12-15 23:25:29

    Аудио
    Идентификатор : 2
    Формат : AAC
    Формат/Информация : Advanced Audio Codec
    Профиль формата : LC
    Идентификатор кодека : 40
    Продолжительность : 2 м. 6 с.
    Вид битрейта : Переменный
    Битрейт : 192 Кбит/сек
    Максимальный битрейт : 201 Кбит/сек
    Каналы : 2 канала
    Расположение каналов : Front: L R
    Частота : 44,1 КГц
    Метод сжатия : С потерями
    Размер потока : 2,90 Мбайт (12%)
    Заголовок : IsoMedia File Produced by Google, 5-11-2011
    Дата кодирования : UTC 2013-12-15 23:25:29
    Дата пометки : UTC 2013-12-15 23:25:29

    Скриншоты для ознакомления

    Залил: rostovrf
    Размер скачиваемого торрента: 24.12 MB (25294488 Bytes)

    Глубинные Империи / Empires of the Deep (2014) | WEB-DLRip 720p | Трейлер | L1 торрент скачать бесплатно
    загрузка...
    Рейтинг →
     (голосов: 1, оценка 4/5, голосовать можно 1 раз )

    Другие торренты по теме:

  • Ужас на глубине 9-ти миль / Nine Miles Down (2009) BDRip-AVC от potroks | P2 торрент скачать бесплатно
  • Чайлд Линкольн - Из глубины (2012) MP3 торрент скачать бесплатно
  • Подъем с глубины / Deep Rising (1998) BDRip от Leon-masl торрент скачать бесплатно
  • Подъём с глубины / Deep Rising (1998) BDRip от R. G. Jolly Roger торрент скачать бесплатно
  • Глубина / Below (2002) HDRip от Leon-masl | D, P, P2 торрент скачать бесплатно
  • Глубинное бурение: Герман Стерлигов (2013) WEBRip торрент скачать бесплатно
  • Вулканы океанских глубин / Volcanoes of the deep sea (2012) HDTVRip 720p | D торрент скачать бесплатно
  • Из глубины сердца / Gundello Godari (2013) DVDRip | Sub торрент скачать бесплатно


    • Комментарии (0):

      Информация

      Информация

        Посетители, находящиеся в группе Гости, не могут оставлять комментарии в данной новости.

        ↓ Меню



        ↓ Опрос

        А Вы добавили сайт в закладки?
        Да
        Не


        Top 10 за неделю (Фильмы)