.
Авторизация | Регистрация
» » Бинго-Бонго / Bingo-Bongo (1982) HDTVRip торрент скачать бесплатно




    Бинго-Бонго / Bingo-Bongo (1982) HDTVRip торрент скачать бесплатно

    Опубликовал: Админ | Дата: 27-02-2015, 11:10 | Просмотров: 236



    Детально о кино
    Русское название: Бинго-Бонго
    Русское название в мировом прокате: Bingo-Bongo
    Создали в: 1982
    Категория жанра: комедия, семейный
    Главный режиссер: Паскуале Феста Кампаниле
    Актеры: Адриано Челентано, Кароль Буке, Феличе Андреази, Энцо Робутти, Вальтер Д’Аморе, Роберто Марелли, Альфио Патане, Элизабет Коббен, Маурицио Табани, Марио Барилла

    Сюжет фильма:
    Человек-обезьяна, найденный где-то в джунглях Конго, перевезен в Милан и назван Бинго-Бонго. Одна лишь Лаура, женщина-антрополог, верит в человеческие качества этого необузданного полуживотного, и их привязанность друг к другу даже перерастает в любовь.




    Снималось в: Италия, Германия (ФРГ)
    Киностудия: Intercapital
    Время просмотра: 01:41:30
    Перевод текста: Профессиональный двухголосый

    Файл
    Кодек для видео: XviD
    Качество фильма: HDTVRip (Исх. HDTV 1080p)
    Информация о видео: 624x336 (1.86:1), 25 fps, XviD ~889 kbps avg, 0.17 bit/pixel
    Информация о звуке: 48 kHz, MPEG Layer 3, 2 ch, ~128.00 kbps avg
    Субтитры: нет

    Семпл


    MediaInfo

    Общее
    Полное имя : S:ФильмыБинго-Бонго. 1982. HDTVRip.avi
    Формат : AVI
    Формат/Информация : Audio Video Interleave
    Размер файла : 745 Мбайт
    Продолжительность : 1 ч. 41 м.
    Общий поток : 1027 Кбит/сек
    Программа кодирования : VirtualDubMod 1.5.10.3 | www.virtualdub-fr.org || (build 2550/release)
    Библиотека кодирования : VirtualDubMod build 2550/release

    Видео
    Идентификатор : 0
    Формат : MPEG-4 Visual
    Профиль формата : Advanced Simple@L5
    Параметр BVOP формата : 2
    Параметр QPel формата : Нет
    Параметр GMC формата : Без точки перехода
    Параметр матрицы формата : Выборочная
    Идентификатор кодека : XVID
    Идентификатор кодека/Подсказка : XviD
    Продолжительность : 1 ч. 41 м.
    Битрейт : 889 Кбит/сек
    Ширина : 624 пикс.
    Высота : 336 пикс.
    Соотношение сторон : 1,857
    Частота кадров : 25,000 кадр/сек
    Цветовое пространство : YUV
    Подвыборка цветности : 4:2:0
    Битовая глубина : 8 бит
    Тип развёртки : Прогрессивная
    Метод сжатия : С потерями
    Бит/(Пиксели*Кадры) : 0.170
    Размер потока : 645 Мбайт (87%)
    Библиотека кодирования : XviD 1.2.1 (UTC 2008-12-04)

    Аудио
    Идентификатор : 1
    Формат : MPEG Audio
    Версия формата : Version 1
    Профиль формата : Layer 3
    Идентификатор кодека : 55
    Идентификатор кодека/Подсказка : MP3
    Продолжительность : 1 ч. 41 м.
    Вид битрейта : Постоянный
    Битрейт : 128 Кбит/сек
    Каналы : 2 канала
    Частота : 48,0 КГц
    Метод сжатия : С потерями
    Размер потока : 92,9 Мбайт (12%)
    Выравнивание : Соединение по промежуткам
    Продолжительность промежутка : 40 мс. (1,00 видеокадр)
    Время предзагрузки промежутка : 504 ms
    Библиотека кодирования : LAME3.99r
    Залил: fedorjuk
    Размер скачиваемого торрента: 745.28 MB (781481984 Bytes)


    Бинго-Бонго / Bingo-Bongo (1982) HDTVRip торрент скачать бесплатно
    загрузка...
    Рейтинг →
     (голосов: 1, оценка 4/5, голосовать можно 1 раз )

    Другие торренты по теме:



      Комментарии (0):

      Информация

      Информация

        Посетители, находящиеся в группе Гости, не могут оставлять комментарии в данной новости.

        ↓ Меню



        ↓ Опрос

        А Вы добавили сайт в закладки?
        Да
        Не


        Top 10 за неделю (Фильмы)