.
Авторизация | Регистрация
Хочешь лучшие торренты? Добавь свой email!
Добавить
» » Терминатор / The Terminator (1984) BDRip-AVC | iPad | D,P1 торрент скачать бесплатно




    Терминатор / The Terminator (1984) BDRip-AVC | iPad | D,P1 торрент скачать бесплатно

    Опубликовал: Админ | Дата: 27-02-2015, 11:10 | Просмотров: 276



    Терминатор / The Terminator (1984) BDRip-AVC | iPad | D,P1

    Русское название: Терминатор
    Русское название в мировом прокате: The Terminator
    Создали в: 1984
    Категория жанра: фантастика, боевик
    Главный режиссер: Джеймс Кэмерон / James Cameron
    Актеры: Арнольд Шварценеггер (Terminator), Майкл Бин (Kyle Reese), Линда Хэмилтон (Sarah Connor), Пол Уинфилд (Lieutenant Ed Traxler), Лэнс Хенриксен (Detective Hal Vukovich), Рик Россович (Matt Buchanan), Бесс Мотта (Ginger Ventura), Эрл Боэн (Dr. Peter Silberman), Дик Миллер (Pawn Shop Clerk), Шоун Шеппс (Nancy), Брюс М. Кернер (Desk Sergeant), Франко Колумбу (Future Terminator)

    Сюжет фильма:
    История противостояния солдата Кайла Риза и киборга-терминатора, прибывших в 1984-й год из пост-апокалиптического будущего, где миром правят машины-убийцы, а человечество находится на грани вымирания. Цель киборга: убить девушку по имени Сара Коннор, чей ещё нерождённый сын к 2029 году выиграет войну человечества с машинами. Цель Риза: спасти Сару и остановить Терминатора любой ценой.



    Снималось в: Великобритания, США
    Киностудия: MGM

    Время просмотра: 01:47:26
    Перевод текста: Русский профессиональный многоголосый закадровый, Русский дублированный

    Файл
    Кодек для видео: H.264
    Качество фильма: BDRip-AVC 576p
    Информация о видео: 1024x554 (1.85:1) at 23.976 fps, AVC at 4100 kbps
    Информация о звуке:
    1: АAС 2.0 139 kbps - Русский профессиональный одноголосый закадровый (Goblin)
    2: АAС 2.0 139 kbps - Русский дублированный (BD CEE)
    3: АAС 2.0 144 kbps - Английский
    Субтитры: русские, английские

    MI

    General
    Complete name : C:CREATE264mod1outThe.Terminator.1984.576p.D.P1.m4v
    Format : MPEG-4
    Codec ID : M4V
    File size : 3.46 GiB
    Duration : 1h 47mn
    Overall bit rate mode : Variable
    Overall bit rate : 4 611 Kbps
    Movie name : Терминатор
    Performer : James Cameron
    Genre : Sci-Fi Fantasy
    ContentType : Short Film
    Deion : В 2029 году, в разгар войны между людьми и роботами, машины-убийцы с помощью суперкомпьютера Скайнет отправили в прошлое, в 1984 год, киборга-терминатора, который должен был убить женщину по имени Сара Коннор, чтобы не появился на свет ее сын...
    Recorded date : UTC 1984-10-26 07:00:00
    Encoded date : UTC 2014-04-27 11:53:36
    Tagged date : UTC 2014-04-27 12:01:10
    Copyright : © 1984 Cinema ;84, A Greenberg Brothers Partnership. All Rights Reserved.
    Cover : Yes
    Comment : Твое будущее в его руках
    ContentRating : mpaa|R|400|

    Title/Sort : The Terminator
    LongDeion : В 2029 году, в разгар войны между людьми и роботами, машины-убийцы с помощью суперкомпьютера Скайнет отправили в прошлое, в 1984 год, киборга-терминатора, который должен был убить женщину по имени Сара Коннор, чтобы не появился на свет ее сын, возглавивший в будущем восстание против роботов. Вслед за киборгом в 1984 год отправился и Кайл Рис, задача которого — остановить терминатора любой ценой!
    AppleStoreCatalogID : 271991087
    Vendor : Apple:vendor_id:1984-507

    Video
    ID : 1
    Format : AVC
    Format/Info : Advanced Video Codec
    Format profile : High@L4.1
    Format settings, CABAC : Yes
    Format settings, ReFrames : 11 frames
    Codec ID : avc1
    Codec ID/Info : Advanced Video Coding
    Duration : 1h 47mn
    Bit rate : 4 176 Kbps
    Maximum bit rate : 15.6 Mbps
    Width : 1 024 pixels
    Height : 554 pixels
    Display aspect ratio : 1.85:1
    Frame rate mode : Constant
    Frame rate : 23.976 fps
    Color space : YUV
    Chroma subsampling : 4:2:0
    Bit depth : 8 bits
    Scan type : Progressive
    Bits/(Pixel*Frame) : 0.307
    Stream size : 3.13 GiB (91%)
    Title : The Terminator _1984_
    Language : English
    Encoded date : UTC 2014-04-27 11:53:36
    Tagged date : UTC 2014-04-27 11:54:16
    Matrix coefficients : BT.709

    Audio #1
    ID : 2
    Format : AAC
    Format/Info : Advanced Audio Codec
    Format profile : LC
    Codec ID : 40
    Duration : 1h 47mn
    Bit rate mode : Variable
    Bit rate : 139 Kbps
    Maximum bit rate : 189 Kbps
    Channel(s) : 2 channels
    Channel positions : Front: L R
    Sampling rate : 48.0 KHz
    Compression mode : Lossy
    Stream size : 107 MiB (3%)
    Title : AVO Goblin
    Language : Russian
    Encoded date : UTC 2014-04-27 11:42:46
    Tagged date : UTC 2014-04-27 11:54:16

    Audio #2
    ID : 3
    Format : AAC
    Format/Info : Advanced Audio Codec
    Format profile : LC
    Codec ID : 40
    Duration : 1h 47mn
    Bit rate mode : Variable
    Bit rate : 137 Kbps
    Maximum bit rate : 188 Kbps
    Channel(s) : 2 channels
    Channel positions : Front: L R
    Sampling rate : 48.0 KHz
    Compression mode : Lossy
    Stream size : 105 MiB (3%)
    Title : Dub BD_CEE
    Language : Russian
    Encoded date : UTC 2014-04-27 11:47:11
    Tagged date : UTC 2014-04-27 11:54:16

    Audio #3
    ID : 4
    Format : AAC
    Format/Info : Advanced Audio Codec
    Format profile : LC
    Codec ID : 40
    Duration : 1h 47mn
    Bit rate mode : Variable
    Bit rate : 144 Kbps
    Maximum bit rate : 194 Kbps
    Channel(s) : 2 channels
    Channel positions : Front: L R
    Sampling rate : 48.0 KHz
    Compression mode : Lossy
    Stream size : 109 MiB (3%)
    Title : Oroginal
    Language : English
    Encoded date : UTC 2014-04-27 11:51:41
    Tagged date : UTC 2014-04-27 11:54:16

    Text #1
    ID : 5
    Format : Timed Text
    Muxing mode : sbtl
    Codec ID : tx3g
    Duration : 1h 47mn
    Bit rate mode : Variable
    Bit rate : 49 bps
    Stream size : 38.1 KiB (0%)
    Title : Subtitle Russian BD CEE
    Language : Russian
    Encoded date : UTC 2014-04-27 11:54:16
    Tagged date : UTC 2014-04-27 11:54:16

    Text #2
    ID : 6
    Format : Timed Text
    Muxing mode : sbtl
    Codec ID : tx3g
    Duration : 1h 47mn
    Bit rate mode : Variable
    Bit rate : 31 bps
    Stream size : 24.2 KiB (0%)
    Title : Subtitle English
    Language : English
    Encoded date : UTC 2014-04-27 11:54:16
    Tagged date : UTC 2014-04-27 11:54:16
    iTunes tags


    Sort Name: The Terminator
    XID: Apple:vendor_id:1984-507
    Content ID: 271991087
    Copyright: © 1984 Cinema ;84, A Greenberg Brothers Partnership. All Rights Reserved.
    ScreenWriters: Джеймс Кэмерон, Гэйл Энн Хёрд, Уильям Уишер мл.
    Producers: Гэйл Энн Хёрд, Джон Дэйли, Дерек Гибсон
    Director: Джеймс Кэмерон
    Cast: Арнольд Шварценеггер, Майкл Бин, Линда Хэмилтон, Пол Уинфилд, Лэнс Хенриксен, Рик Россович, Бесс Мотта, Эрл Боэн, Дик Миллер, Шон Шеппс // Arnold Schwarzenegger (The Terminator), Michael Biehn (Kyle Reese), Linda Hamilton (Sarah Connor), Paul Winfield (Lieutenant Ed Traxler), Lance Henriksen (Detective Vukovich), Bess Motta (Ginger Ventura), Earl Boen (Dr. Peter Silberman), Rick Rossovich (Matt Buchanan), Bill Paxton (Punk Leader), Brian Thompson (Punk), Franco Columbu (Future Terminator), Dick Miller (Pawnshop Clerk)
    Rating: R
    Long Deion: В 2029 году, в разгар войны между людьми и роботами, машины-убийцы с помощью суперкомпьютера Скайнет отправили в прошлое, в 1984 год, киборга-терминатора, который должен был убить женщину по имени Сара Коннор, чтобы не появился на свет ее сын, возглавивший в будущем восстание против роботов. Вслед за киборгом в 1984 год отправился и Кайл Рис, задача которого — остановить терминатора любой ценой!
    Deion: В 2029 году, в разгар войны между людьми и роботами, машины-убийцы с помощью суперкомпьютера Скайнет отправили в прошлое, в 1984 год, киборга-терминатора, который должен был убить женщину по имени Сара Коннор, чтобы не появился на свет ее сын...
    Release Date: 1984-10-26T07:00:00Z
    Genre: Sci-Fi Fantasy
    Artist: James Cameron
    Name: Терминатор
    Comments: Твое будущее в его руках

    x264

    x264 info: frame I:969 Avg QP:15.44 size: 85039
    x264 info: frame P:37995 Avg QP:17.93 size: 38882
    x264 info: frame B:115551 Avg QP:20.08 size: 15612
    x264 info: consecutive B-frames: 2.9% 3.9% 12.4% 26.8% 22.1% 28.2% 1.5% 0.5% 0.4% 0.6% 0.1% 0.1% 0.1% 0.5% 0.0%
    x264 info: mb I I16..4: 13.4% 60.8% 25.8%
    x264 info: mb P I16..4: 1.8% 16.8% 3.1% P16..4: 29.1% 33.6% 10.0% 2.1% 0.2% skip: 3.2%
    x264 info: mb B I16..4: 0.2% 2.8% 0.4% B16..8: 36.0% 20.4% 3.4% direct: 7.7% skip:29.0% L0:38.4% L1:44.5% BI:17.2%
    x264 info: 8x8 transform intra:78.0% inter:49.8%
    x264 info: coded y,uvDC,uvAC intra: 92.3% 75.4% 52.8% inter: 30.3% 19.2% 6.1%
    x264 info: i16 v,h,dc,p: 8% 12% 9% 71%
    x264 info: i8 v,h,dc,ddl,ddr,vr,hd,vl,hu: 9% 9% 8% 10% 14% 13% 13% 12% 13%
    x264 info: i4 v,h,dc,ddl,ddr,vr,hd,vl,hu: 9% 10% 5% 10% 15% 13% 13% 11% 14%
    x264 info: i8c dc,h,v,p: 31% 29% 19% 21%
    x264 info: Weighted P-Frames: Y:7.3% UV:5.2%
    x264 info: ref P L0: 55.3% 9.2% 14.1% 6.2% 4.3% 3.2% 2.5% 1.5% 1.3% 1.1% 1.1% 0.2% 0.0%
    x264 info: ref B L0: 86.2% 6.0% 2.9% 1.4% 1.0% 0.8% 0.6% 0.4% 0.4% 0.2%
    x264 info: ref B L1: 95.4% 4.6%
    x264 info: kb/s:4175.53


    full-size screenshots















    Залил: gekka
    Размер скачиваемого торрента: 3.46 GB (3715392393 Bytes)

    Терминатор / The Terminator (1984) BDRip-AVC | iPad | D,P1 торрент скачать бесплатно
    загрузка...
    Рейтинг →
     (голосов: 1, оценка 3/5, голосовать можно 1 раз )

    Другие торренты по теме:

  • Терминатор: Да придёт спаситель / Terminator Salvation (2009) HDRip от Scarabey | D | Театральная версия
  • OST - Терминатор / Terminator Soundtrack Quintus (1984-2009) MP3
  • Терминатор 3: Восстание машин / Terminator 3: Rise of the Machines (2003) BD-Remux
  • Терминатор 2: Судный день / Terminator 2: Judgment Day (1991) Blu-Ray
  • Терминатор 2: Два брата терминавта или день подводника / Terminator 2: Judgment Day (1991) HDRip
  • Терминатор: Квадрология / Terminator: Quadrilogy (1984-2009) HDRip | КПК от R.G. Mobile-Men | D, P
  • Терминатор: Квадрология / The Terminator: Quadrilogy (1984-2009) HDRip-AVC от WazZzup
  • Терминатор 2: Судный день / Terminator 2: Judgment Day (1991) BDRip 1080p | Специальная расширенная версия


    • Комментарии (0):

      Информация

      Информация

        Посетители, находящиеся в группе Гости, не могут оставлять комментарии в данной новости.

        ↓ Меню



        ↓ Опрос

        А Вы добавили сайт в закладки?
        Да
        Не


        Top 10 за месяц (Фильмы)