.
Авторизация | Регистрация
Хочешь лучшие торренты? Добавь свой email!
Добавить
» » Чего хотят женщины / What Women Want (2000) DVD-9 | D, P скачать через торрент бесплатно




    Чего хотят женщины / What Women Want (2000) DVD-9 | D, P скачать через торрент бесплатно

    Опубликовал: Админ | Дата: 27-02-2015, 11:10 | Просмотров: 187



    Детально о кино
    Русское название: Чего хотят женщины
    Русское название в мировом прокате: What Women Want
    Создали в: 2000
    Категория жанра: Мелодрама, комедия, фэнтези
    Главный режиссёр: Нэнси Мейерс
    Актеры: Мэл Гибсон, Хелен Хант, Джуди Грир, Лиза Эдельстейн, Марк Фойерстайн, Мариса Томей, Алан Алда, Лоретта Дивайн, Сара Полсон, Лорен Холли, Ана Гастейер, Бетт Мидлер, Валери Перрин, Эшли Джонсон, Делта Берк

    Сюжет фильма:
    Что делать, если вы считаете себя отличным работником, и ожидаете продвижение по службе, а должность достается другому? Что делать, если вы считаете себя очаровательным и неотразимым мужчиной, но при этом личная жизнь не налажена, бывшая жена выходит замуж, а взрослая дочь считает вас плохим отцом? Что может изменить сложившуюся ситуацию? Нику Маршалу помогает несчастный случай, который наделяет его уникальным даром - читать женские мысли. Эти сверхъестественные способности дают немало возможностей нашему герою, увлекая в водоворот любовных приключений и комичных ситуаций, но сможет ли Ник Маршал понять, чего действительно хотят женщины…



    Снималось в: США
    Киностудия: Icon Entertainmnet International, Paramount Pictures
    Время просмотра: 02:01:28
    Перевод текста: Дубляж, профессиональный многоголосый
    Оригинальная аудио-дорожка: Английская

    Файл
    Кодек для видео: MPEG2
    Качество фильма: DVD-9
    Информация о видео: PAL, 720x576 (16:9), ~8000 Кбит/с, VBR, 25 кадр/с
    Информация о звуке #1: Русский, DTS, 48000 Гц, 768 Кбит/с, 6 каналов (5.1) - Дубляж
    Информация о звуке #2: Английский, Dolby AC3, 48000 Гц, 448 Кбит/с, 6 каналов (5.1) - Оригинал
    Информация о звуке #3: Русский, Dolby AC3, 48000 Гц, 448 Кбит/с, 6 каналов (5.1) - Профессиональный многоголосый
    Субтитры: Русские, английские



    MediaInfo

    General
    Complete name : What.Women.Want.2000.DVD9VTS_03_1.VOB
    Format : MPEG-PS
    File size : 1 024 MiB
    Duration : 19mn 16s
    Overall bit rate : 7 425 Kbps

    Video
    ID : 224 (0xE0)
    Format : MPEG Video
    Format version : Version 2
    Format profile : Main@Main
    Format settings, BVOP : Yes
    Format settings, Matrix : Default
    Duration : 19mn 16s
    Bit rate mode : Variable
    Bit rate : 5 627 Kbps
    Nominal bit rate : 8 200 Kbps
    Width : 720 pixels
    Height : 576 pixels
    Display aspect ratio : 2.35:1
    Frame rate : 25.000 fps
    Standard : PAL
    Color space : YUV
    Chroma subsampling : 4:2:0
    Bit depth : 8 bits
    Scan type : Interlaced
    Scan order : Top Field First
    Compression mode : Lossy
    Bits/(Pixel*Frame) : 0.543
    Stream size : 776 MiB (76%)

    Audio #1
    ID : 189 (0xBD)-128 (0x80)
    Format : AC-3
    Format/Info : Audio Coding 3
    Mode extension : CM (complete main)
    Muxing mode : DVD-Video
    Duration : 19mn 16s
    Bit rate mode : Constant
    Bit rate : 448 Kbps
    Channel(s) : 6 channels
    Channel positions : Front: L C R, Side: L R, LFE
    Sampling rate : 48.0 KHz
    Bit depth : 16 bits
    Compression mode : Lossy
    Stream size : 61.8 MiB (6%)

    Audio #2
    ID : 189 (0xBD)-129 (0x81)
    Format : AC-3
    Format/Info : Audio Coding 3
    Mode extension : CM (complete main)
    Muxing mode : DVD-Video
    Duration : 19mn 16s
    Bit rate mode : Constant
    Bit rate : 448 Kbps
    Channel(s) : 6 channels
    Channel positions : Front: L C R, Side: L R, LFE
    Sampling rate : 48.0 KHz
    Bit depth : 16 bits
    Compression mode : Lossy
    Stream size : 61.8 MiB (6%)

    Audio #3
    ID : 189 (0xBD)-138 (0x8A)
    Format : DTS
    Format/Info : Digital Theater Systems
    Muxing mode : DVD-Video
    Duration : 19mn 16s
    Bit rate mode : Constant
    Bit rate : 755 Kbps
    Channel(s) : 6 channels
    Channel positions : Front: L C R, Side: L R, LFE
    Sampling rate : 48.0 KHz
    Bit depth : 24 bits
    Compression mode : Lossy
    Stream size : 104 MiB (10%)

    Text
    ID : 189 (0xBD)-32 (0x20)
    Format : RLE
    Format/Info : Run-length encoding
    Muxing mode : DVD-Video

    Menu
    Скриншоты для ознакомления меню




    Скриншоты для ознакомления

    Залил: ivandubskoj
    Размер скачиваемого торрента: 6.64 GB (7128883200 Bytes)

    Чего хотят женщины / What Women Want (2000) DVD-9 | D, P скачать через торрент бесплатно
    загрузка...
    Рейтинг →
     (голосов: 1, оценка 5/5, голосовать можно 1 раз )

    Другие торренты по теме:

  • Красавчик Алфи, или Чего хотят мужчины / Alfie (2004) WEB-DLRip от Youtracker | D | iTunes Russia
  • Красавчик Алфи, или Чего хотят мужчины / Alfie (2004) HDRip от Scarabey | D
  • Чего хотят женщины / What Women Want (2000) HDRip от Scarabey | D скачать через торрент бесплатно
  • Чего хотят женщины / What Women Want / Wo zhi nv ren xin (2011) HDRip от Assassins Creed | КПК скачать через торрент бесплатно
  • Чего хотят женщины / What Women Want (2000) BDRip 720p | D
  • Красавчик Алфи, или Чего хотят мужчины / Alfie (2004) WEB-DL 720p | D, P, P2, A, L


    • Комментарии (0):

      Информация

      Информация

        Посетители, находящиеся в группе Гости, не могут оставлять комментарии в данной новости.

        ↓ Меню



        ↓ Опрос

        А Вы добавили сайт в закладки?
        Да
        Не


        Top 10 за месяц (Фильмы)