.
Авторизация | Регистрация
Хочешь лучшие торренты? Добавь свой email!
Добавить
» » Удалённый контроль / Remote Control (1988) BDRip by msltel | P, P2 скачать через торрент бесплатно




    Удалённый контроль / Remote Control (1988) BDRip by msltel | P, P2 скачать через торрент бесплатно

    Опубликовал: Админ | Дата: 27-02-2015, 11:10 | Просмотров: 252



    Русское название: Удалённый контроль
    Русское название в мировом прокате: Remote Control
    Создали в: 1988
    Категория жанра: Ужасы, фантастика, комедия
    Снималось в: США, Vista Organization
    Главный режиссер: Джефф Либерман
    Актеры: Кевин Диллон, Дебора Гудрич, Кристофер Уинн, Фрэнк Бэддор, Дженнифер Тилли, Каарен Ли, Берт Ремсен, Джеролд Пирсон, Дженнифер Бьюкэнэн, Дебора Дауни, Уилл Най, Мэрлин Адамс, Дик Уорлок, Энн Уолкер, Майк Пневски, Джон Лафайетт, Аль Айсенманн, А. Майкл Лернер, Тэд Хорино, Джералд Янн, Ти Келли, Лиза Элифф, Ларри Минтц, Дик Дурок, Рэнди Саттер, Джордж П. Вилбур, Ина Ромео, Джек Слэйтер, Джеффри Судзин, Роберт Абрамс

    Сюжет фильма: В видеопрокате имеется кассета, которая убивает зрителей. Но не все зрители жертвы, и не все — трусы. Находятся отчаянные молодые ребята, которые решают выяснить, что же это за злодейская кассета...

    Качество фильма: BDRip
    Размер скачиваемого торрента: 1.55 ГБ
    Время просмотра: 01:28:06

    Информация о видео: XviD, 1900 Кбит/с, 720x384
    Информация о звуке 1: русский, 48 kHz, AC3, 2 ch, 192 kbps avg, Профессиональный многоголосый, Инис
    Информация о звуке 2: русский, 48 kHz, AC3, 2 ch, 224 kbps avg, Профессиональный двухголосый, Рен ТВ

    Внешние файлы
    Информация о звуке: английский, 48 kHz, AC3, 2 ch, 192 kbps avg, Оригинал
    Субтитры: английские

    Исходник: ChuckNorriss (HDtracker)



    MediaInfo
    Общее
    Полное имя : D:VideoUdalennyj kontrol.1988.XviD.BDRipUdalennyj kontrol.1988.Original.eng.ac3
    Формат : AC-3
    Формат/Информация : Audio Coding 3
    Размер файла : 121 Мбайт
    Продолжительность : 1 ч. 28 м.
    Режим общего битрейта : Постоянный
    Общий поток : 192 Кбит/сек

    Аудио
    Формат : AC-3
    Формат/Информация : Audio Coding 3
    Расширение режима : CM (complete main)
    Параметр Endianness формата : Big
    Продолжительность : 1 ч. 28 м.
    Вид битрейта : Постоянный
    Битрейт : 192 Кбит/сек
    Каналы : 2 канала
    Расположение каналов : Front: L R
    Частота : 48,0 КГц
    Битовая глубина : 16 бит
    Метод сжатия : С потерями
    Размер потока : 121 Мбайт (100%)

    Общее
    Полное имя : D:VideoUdalennyj kontrol.1988.XviD.BDRipUdalennyj kontrol.1988.XviD.BDRip.avi
    Формат : AVI
    Формат/Информация : Audio Video Interleave
    Размер файла : 1,43 Гбайт
    Продолжительность : 1 ч. 28 м.
    Общий поток : 2331 Кбит/сек
    Программа кодирования : VirtualDubMod 1.5.10.2 (build 2540/release)
    Библиотека кодирования : VirtualDubMod build 2540/release

    Видео
    Идентификатор : 0
    Формат : MPEG-4 Visual
    Профиль формата : Advanced Simple@L5
    Параметр BVOP формата : 1
    Параметр QPel формата : Нет
    Параметр GMC формата : Без точки перехода
    Параметр матрицы формата : Default (H.263)
    Режим смешивания : Сжатый битовый поток
    Идентификатор кодека : XVID
    Идентификатор кодека/Подсказка : XviD
    Продолжительность : 1 ч. 28 м.
    Битрейт : 1900 Кбит/сек
    Ширина : 720 пикселей
    Высота : 384 пикселя
    Соотношение сторон : 1,85:1
    Частота кадров : 23,976 кадра/сек
    Цветовое пространство : YUV
    Субдискретизация насыщенности : 4:2:0
    Битовая глубина : 8 бит
    Тип развёртки : Прогрессивная
    Метод сжатия : С потерями
    Бит/(Пиксели*Кадры) : 0.287
    Размер потока : 1,17 Гбайт (82%)
    Библиотека кодирования : XviD 1.2.1 (UTC 2008-12-04)

    Аудио #1
    Идентификатор : 1
    Формат : AC-3
    Формат/Информация : Audio Coding 3
    Расширение режима : CM (complete main)
    Параметр Endianness формата : Big
    Идентификатор кодека : 2000
    Продолжительность : 1 ч. 28 м.
    Вид битрейта : Постоянный
    Битрейт : 192 Кбит/сек
    Каналы : 2 канала
    Расположение каналов : Front: L R
    Частота : 48,0 КГц
    Битовая глубина : 16 бит
    Метод сжатия : С потерями
    Размер потока : 121 Мбайт (8%)
    Выравнивание : Разделение по промежуткам
    Продолжительность промежутка : 42 мс. (1,00 видеокадр)
    Время предзагрузки промежутка : 500 мс.

    Аудио #2
    Идентификатор : 2
    Формат : AC-3
    Формат/Информация : Audio Coding 3
    Расширение режима : CM (complete main)
    Параметр Endianness формата : Big
    Идентификатор кодека : 2000
    Продолжительность : 1 ч. 28 м.
    Вид битрейта : Постоянный
    Битрейт : 224 Кбит/сек
    Каналы : 2 канала
    Расположение каналов : Front: L R
    Частота : 48,0 КГц
    Битовая глубина : 16 бит
    Метод сжатия : С потерями
    Размер потока : 141 Мбайт (10%)
    Выравнивание : Разделение по промежуткам
    Продолжительность промежутка : 42 мс. (1,00 видеокадр)
    Время предзагрузки промежутка : 500 мс.
    Скриншоты для ознакомления


    Залил: msltel
    Размер скачиваемого торрента: 1.55 GB (1666792704 Bytes)

    Удалённый контроль / Remote Control (1988) BDRip by msltel | P, P2 скачать через торрент бесплатно
    загрузка...
    Рейтинг →
     (голосов: 1, оценка 4/5, голосовать можно 1 раз )

    Другие торренты по теме:

  • Удалённый контроль / Remote Control (1988) BDRip 720p by msltel | P, P2
  • Удалённый контроль / Remote Control (1988) BDRip 1080p by msltel | P, P2 скачать через торрент бесплатно


    • Комментарии (0):

      Информация

      Информация

        Посетители, находящиеся в группе Гости, не могут оставлять комментарии в данной новости.

        ↓ Меню



        ↓ Опрос

        А Вы добавили сайт в закладки?
        Да
        Не


        Top 10 за месяц (Фильмы)