.
Авторизация | Регистрация
Хочешь лучшие торренты? Добавь свой email!
Добавить
» » Битва на Неретве / Bitka na Neretvi (1969) BDRip by msltel | A скачать через торрент бесплатно




    Битва на Неретве / Bitka na Neretvi (1969) BDRip by msltel | A скачать через торрент бесплатно

    Опубликовал: Админ | Дата: 27-02-2015, 11:10 | Просмотров: 224



    Русское название: Битва на Неретве
    Русское название в мировом прокате: Bitka na Neretvi
    Создали в: 1969
    Категория жанра: Военный, драма
    Снималось в: Италия, Igor Film, Югославия, Босна Филм, Jadran Film, ФРГ, Eichberg-Film
    Главный режиссер: Велько Булайич
    Актеры: Борис Дворник, Олег Видов, Орсон Уэллс, Юл Бриннер, Франко Неро, Сильва Кошина, Курд Юргенс, Энтони Досон, Велимир ;Бата; Живоинович, Говард Росс, Стоян Аранджелович, Шарль Милло, Божидар Смилянич, Павле Вуисич, Деметер Битенк, Ранко Гусевац, Милена Дравич, Заим Музаферия, Слободан Велимирович, Любиша Самарджич, Никола-Коле Ангеловски, Миха Балох, Фарук Беголли, Душан Булаич, Драгомир Фельба, Васа Пантелич, Спела Розин, Фабиян Шовагович, Абдуррахман Шала, Милош Кандич, Сергей Бондарчук, Харди Крюгер, Лойзе Розман, Ристо Шишков, Симе Ягаринек

    Сюжет фильма: Югославия. Начало 1943 года. По личному приказу Гитлера генералы начали исполнять план Вайс — уничтожение партизанского государства. Немецкие и итальянские части, составленные из 18 дивизий, при помощи отечественных предателей оттеснили главные силы Народно-освободительной армии. Соотношение вражеских и партизанских частей было 6:1. Кроме того, у партизан было 4500 раненых и сыпотифозных бойцов. Ставка, больные и раненые попали в окружение в долине реки Неретвы. Остался только мост через бушующую и ледяную Неретву. На противоположном берегу ждали сильные вражеские части, подготавливаясь к кровавой резне раненых бойцов и беспомощного народа. Тито приказал взорвать мост на Неретве. Удивлённый враг сейчас же перебросил свои части на другую сторону, предполагая, что партизаны попытаются вырваться из кольца окружения. Партизаны же врагу подготовили совсем неожиданный сюрприз. В течение ночи они построили возле разрушенного моста монтажный временный мост, через который переправили части, раненых, больных, а также и всё гражданское население, которое было с партизанами.

    Качество фильма: BDRip
    Информация о видео: XviD, 1573 Кбит/с, 720x304
    Информация о звуке: Русский, немецкий (АС3, 6 ch, 448 Кбит/с)
    Размер скачиваемого торрента: 2.6 ГБ
    Время просмотра: 02:29:54
    Перевод текста: Авторский

    Исходник: alinto (HDtracker)

    Сравнение с исходником



    Награды
    Оскар, 1970 год
    Номинации (1):
    Лучший фильм на иностранном языке — Югославия
    MediaInfo
    Общее
    Полное имя : D:VideoBitva na Neretve.1969.XviD.BDRipBitva na Neretve.1969.Original.ger.ac3
    Формат : AC-3
    Формат/Информация : Audio Coding 3
    Размер файла : 480 Мбайт
    Продолжительность : 2 ч. 29 м.
    Режим общего битрейта : Постоянный
    Общий поток : 448 Кбит/сек

    Аудио
    Формат : AC-3
    Формат/Информация : Audio Coding 3
    Расширение режима : CM (complete main)
    Параметр Endianness формата : Big
    Продолжительность : 2 ч. 29 м.
    Вид битрейта : Постоянный
    Битрейт : 448 Кбит/сек
    Каналы : 6 каналов
    Расположение каналов : Front: L C R, Side: L R, LFE
    Частота : 48,0 КГц
    Битовая глубина : 16 бит
    Метод сжатия : С потерями
    Размер потока : 480 Мбайт (100%)

    Общее
    Полное имя : D:VideoBitva na Neretve.1969.XviD.BDRipBitva na Neretve.1969.XviD.BDRip.avi
    Формат : AVI
    Формат/Информация : Audio Video Interleave
    Профиль формата : OpenDML
    Размер файла : 2,13 Гбайт
    Продолжительность : 2 ч. 29 м.
    Общий поток : 2033 Кбит/сек
    Программа кодирования : VirtualDubMod 1.5.10.2 (build 2540/release)
    Библиотека кодирования : VirtualDubMod build 2540/release

    Видео
    Идентификатор : 0
    Формат : MPEG-4 Visual
    Профиль формата : Advanced Simple@L5
    Параметр BVOP формата : 1
    Параметр QPel формата : Нет
    Параметр GMC формата : Без точки перехода
    Параметр матрицы формата : Default (H.263)
    Режим смешивания : Сжатый битовый поток
    Идентификатор кодека : XVID
    Идентификатор кодека/Подсказка : XviD
    Продолжительность : 2 ч. 29 м.
    Битрейт : 1573 Кбит/сек
    Ширина : 720 пикселей
    Высота : 304 пикселя
    Соотношение сторон : 2,35:1
    Частота кадров : 23,976 кадра/сек
    Цветовое пространство : YUV
    Субдискретизация насыщенности : 4:2:0
    Битовая глубина : 8 бит
    Тип развёртки : Прогрессивная
    Метод сжатия : С потерями
    Бит/(Пиксели*Кадры) : 0.300
    Размер потока : 1,65 Гбайт (77%)
    Библиотека кодирования : XviD 1.2.1 (UTC 2008-12-04)

    Аудио
    Идентификатор : 1
    Формат : AC-3
    Формат/Информация : Audio Coding 3
    Расширение режима : CM (complete main)
    Параметр Endianness формата : Big
    Идентификатор кодека : 2000
    Продолжительность : 2 ч. 29 м.
    Вид битрейта : Постоянный
    Битрейт : 448 Кбит/сек
    Каналы : 6 каналов
    Расположение каналов : Front: L C R, Side: L R, LFE
    Частота : 48,0 КГц
    Битовая глубина : 16 бит
    Метод сжатия : С потерями
    Размер потока : 480 Мбайт (22%)
    Выравнивание : Разделение по промежуткам
    Продолжительность промежутка : 42 мс. (1,00 видеокадр)
    Время предзагрузки промежутка : 500 мс.
    Скриншоты для ознакомления


    Залил: msltel
    Размер скачиваемого торрента: 2.60 GB (2788886272 Bytes)

    Битва на Неретве / Bitka na Neretvi (1969) BDRip by msltel | A скачать через торрент бесплатно
    загрузка...
    Рейтинг →
     (голосов: 1, оценка 5/5, голосовать можно 1 раз )

    Другие торренты по теме:

  • Битва на ножах / Knife Fight (2012) WEB-DLRip | Unrated | P
  • Ратные подвиги. Битва на поле Куликовом (2005) DVDRip-AVC от Тorrent-Хzona
  • Битва на гирляндах / Battle of the Bulbs (2010) HDTVRip от MediaClub | P
  • Битва на Косовом поле / Boj na Kosovu (1989) VHSRip
  • Битва на Неретве / Bitka na Neretvi (1969) DVDRip-AVC
  • Без обмана: Битва на овощебазе (2013) SATRip скачать через торрент бесплатно
  • Битва на Неретве / Bitka na Neretvi / 1969 / АП (Сербин) / BDRip (AVC)
  • Битва на небесах / Battle in heaven (2005) DVD9 | P


    • Комментарии (0):

      Информация

      Информация

        Посетители, находящиеся в группе Гости, не могут оставлять комментарии в данной новости.

        ↓ Меню



        ↓ Опрос

        А Вы добавили сайт в закладки?
        Да
        Не


        Top 10 за месяц (Фильмы)