.
Авторизация | Регистрация
Хочешь лучшие торренты? Добавь свой email!
Добавить
» » Другая женщина / The second Woman (1950) DVDRip | P2 скачать через торрент бесплатно




    Другая женщина / The second Woman (1950) DVDRip | P2 скачать через торрент бесплатно

    Опубликовал: Админ | Дата: 27-02-2015, 11:10 | Просмотров: 238

    Другая женщина / The second Woman

    Русское название: Другая женщина
    Русское название в мировом прокате: The second Woman
    Создали в: 1950
    Категория жанра: Драма, нуар, детектив


    Главный режиссер: Джеймс В. Керн

    Актеры: Роберт Янг, Бетси Дрэйк, Джон Саттон, Флоренс Бейтс, Генри О`Нейлл, Жан Роджерс, Ширли Баллард


    Сюжет фильма:
    У героя фильма Джеффа Кохелена за день до свадьбы погибла невеста. Спустя время он знакомится в поезде с молодой женщиной Эллен, тетка которой живет по соседству с Джеффом, и они увлекаются друг другом. Но странные, можно сказать, мистические вещи происходят с Джеффом: у его лошади вдруг оказалась сломана нога, и он вынужден убить ее; висящая у него в доме картина изменила свой цвет; воющая по ночам собака; непонятная неудача с проектом, в успехе которого не было никаких сомнений. Доктор говорит Эллен, что Джефф опасен для общества, так как болен паранойей с манией преследования, и советует ей оставить его. Эллен пытается сама разобраться во всем, но ее чуть не сбивает машина. Развязка же оказалась еще более странной, чем все происходящее...





    Снималось в: США, Cardinal Pictures (II)
    Время просмотра: 01:27:13
    Перевод текста: Профессиональный двухголосый


    Качество фильма: DVDRip
    Информация о видео: XviD, 2045 Кбит/с, 688x528
    Информация о звуке: Русский, английский (AC3, 2 ch, 192 Кбит/с)


    Скриншоты для ознакомления



    MediaInfo
    Общее
    Полное имя : E:The.Second.Woman.1950.P2.XviD.DVDRip.avi
    Формат : AVI
    Формат/Информация : Audio Video Interleave
    Размер файла : 1,49 Гбайт
    Продолжительность : 1 ч. 27 м.
    Общий поток : 2443 Кбит/сек
    Программа кодирования : VirtualDubModRus 1.5.10.2 (build 2542/release)
    Библиотека кодирования : VirtualDubMod build 2542/release

    Видео
    Идентификатор : 0
    Формат : MPEG-4 Visual
    Профиль формата : Advanced Simple@L5
    Параметр BVOP формата : 2
    Параметр QPel формата : Нет
    Параметр GMC формата : Без точки перехода
    Параметр матрицы формата : Default (MPEG)
    Идентификатор кодека : XVID
    Идентификатор кодека/Подсказка : XviD
    Продолжительность : 1 ч. 27 м.
    Битрейт : 2045 Кбит/сек
    Ширина : 688 пикселей
    Высота : 528 пикселей
    Соотношение сторон : 4:3
    Частота кадров : 25,000 кадров/сек
    Цветовое пространство : YUV
    Субдискретизация насыщенности : 4:2:0
    Битовая глубина : 8 бит
    Тип развёртки : Прогрессивная
    Метод сжатия : С потерями
    Бит/(Пиксели*Кадры) : 0.225
    Размер потока : 1,25 Гбайт (84%)
    Библиотека кодирования : XviD 73

    Аудио #1
    Идентификатор : 1
    Формат : AC-3
    Формат/Информация : Audio Coding 3
    Расширение режима : CM (complete main)
    Параметр Endianness формата : Big
    Идентификатор кодека : 2000
    Продолжительность : 1 ч. 27 м.
    Вид битрейта : Постоянный
    Битрейт : 192 Кбит/сек
    Каналы : 2 канала
    Расположение каналов : Front: L R
    Частота : 48,0 КГц
    Битовая глубина : 16 бит
    Метод сжатия : С потерями
    Размер потока : 120 Мбайт (8%)
    Выравнивание : Разделение по промежуткам
    Продолжительность промежутка : 40 мс. (1,00 видеокадр)
    Время предзагрузки промежутка : 500 мс.

    Аудио #2
    Идентификатор : 2
    Формат : AC-3
    Формат/Информация : Audio Coding 3
    Расширение режима : CM (complete main)
    Параметр Endianness формата : Big
    Идентификатор кодека : 2000
    Продолжительность : 1 ч. 27 м.
    Вид битрейта : Постоянный
    Битрейт : 192 Кбит/сек
    Каналы : 2 канала
    Расположение каналов : Front: L R
    Частота : 48,0 КГц
    Битовая глубина : 16 бит
    Метод сжатия : С потерями
    Размер потока : 120 Мбайт (8%)
    Выравнивание : Разделение по промежуткам
    Продолжительность промежутка : 40 мс. (1,00 видеокадр)
    Время предзагрузки промежутка : 500 мс.

    Размер скачиваемого торрента: 1.49 GB (1598531584 Bytes)

    Другая женщина / The second Woman (1950) DVDRip | P2 скачать через торрент бесплатно
    загрузка...
    Рейтинг →
     (голосов: 1, оценка 3/5, голосовать можно 1 раз )

    Другие торренты по теме:

  • Другая женщина / The Second Woman (1950) DVDRip-AVC от -=HD-NET=-
  • Другая женщина BDRip (2014)
  • Другая женщина / Another woman (1988) DVDRip | P
  • Другая женщина / The Other Woman (2014) BDRip-AVC от Leo.pard and Scarabey | D | iTunes
  • Другая женщина / The Other Woman
  • Другая женщина / Another woman (1988) HDTVRip | A


    • Комментарии (0):

      Информация

      Информация

        Посетители, находящиеся в группе Гости, не могут оставлять комментарии в данной новости.

        ↓ Меню



        ↓ Опрос

        А Вы добавили сайт в закладки?
        Да
        Не


        Top 10 за месяц (Фильмы)