.
Авторизация | Регистрация
» » Шпионские игры / Spy Game (2001) BDRip 720p by msltel | D, P, P2, A скачать через торрент бесплатно




    Шпионские игры / Spy Game (2001) BDRip 720p by msltel | D, P, P2, A скачать через торрент бесплатно

    Опубликовал: Админ | Дата: 27-02-2015, 11:10 | Просмотров: 191



    Русское название: Шпионские игры
    Русское название в мировом прокате: Spy Game
    Создали в: 2001
    Категория жанра: Боевик, триллер, криминал
    Снималось в: США, Германия, Франция, Япония, Beacon Communications LLC, Kalima Productions GmbH Co. KG, Metropolitan Filmexport, Red Wagon Productions, Toho-Towa
    Главный режиссер: Тони Скотт
    Актеры: Роберт Редфорд, Брэд Питт, Катрин МакКормак, Стивен Диллэйн, Ларри Бриггман, Марианн Жан-Баптист, Мэттью Марш, Тодд Бойс, Майкл Пол Чан, Гаррик Хэгон, Эндрю Гранье, Билл Бьюэлл, Колин Стинтон, Тед Мэйнард, Том Ходкинс, Руфус Райт, Деметри Горицас, Куинн Коллинз, Сэм Скуддер, Ян Джонсон, Пэт МакГрат

    Сюжет фильма: Натан Муир - специальный агент ЦРУ, ветеран разведки. В свой последний рабочий день перед уходом на пенсию он узнаёт, что его протеже, талантливый оперативник Том Бишоп, находится в китайской тюрьме, и ему грозит смертная казнь. Профессионалу экстра-класса Муиру потребовалось совсем немного времени, чтобы понять, что Бишопа отдадут на заклание властям Китая. Теперь у Натана остаются считанные часы для того чтобы, рискуя собственной головой, провернуть невиданную по дерзости операцию и спасти своего ученика.

    Качество фильма: BDRip 720p
    Размер скачиваемого торрента:7.7 ГБ
    Время просмотра: 02:06:38

    Информация о видео: MPEG-4 AVC, 4167 Кбит/с, 1280x542
    Информация о звуке 1: русский, 48 kHz, AC3, 2 ch, 224 kbps avg, Дублированный, Первый канал
    Информация о звуке 2: русский, 48 kHz, AC3, 6 ch, 384 kbps avg, Профессиональный многоголосый
    Информация о звуке 3: русский, 48 kHz, AC3, 6 ch, 448 kbps avg, Профессиональный двухголосый, Blu-ray EUR
    Информация о звуке 4: русский, 48 kHz, AC3, 6 ch, 448 kbps avg, Авторский, Андрей Гаврилов
    Информация о звуке 5: русский, 48 kHz, AC3, 2 ch, 192 kbps avg, Авторский, Юрий Живов
    Субтитры: английские (хардсабы на неанглийскую речь)

    Внешние файлы
    Информация о звуке: русский, 48 kHz, DTS, 6 ch, 755 kbps avg, Профессиональный двухголосый, Blu-ray EUR
    Информация о звуке: русский, 48 kHz, DTS, 6 ch, 1509 kbps avg, Авторский, Андрей Гаврилов
    Информация о звуке: английский, 48 kHz, AC3, 6 ch, 448 kbps avg, Оригинал
    Субтитры: русские (Blu-ray EUR)
    Субтитры: английские (для слабослышащих)

    Имеются поименованные главы/чаптеры.

    Исходник: posodobl (Кинозал)

    Сравнение с исходником



    MediaInfo + Лог х264
    Общее
    Полное имя : D:VideoShpionskie igry.2001.x264.BDRip.720pShpionskie igry.2001.AVO.rus. А.Гаврилов.dts
    Формат : DTS
    Формат/Информация : Digital Theater Systems
    Размер файла : 1,33 Гбайт
    Продолжительность : 2 ч. 6 м.
    Режим общего битрейта : Постоянный
    Общий поток : 1510 Кбит/сек

    Аудио
    Формат : DTS
    Формат/Информация : Digital Theater Systems
    Режим : 16
    Параметр Endianness формата : Big
    Продолжительность : 2 ч. 6 м.
    Вид битрейта : Постоянный
    Битрейт : 1510 Кбит/сек
    Каналы : 6 каналов
    Расположение каналов : Front: L C R, Side: L R, LFE
    Частота : 48,0 КГц
    Битовая глубина : 24 бит
    Метод сжатия : С потерями
    Размер потока : 1,33 Гбайт (100%)

    Общее
    Полное имя : D:VideoShpionskie igry.2001.x264.BDRip.720pShpionskie igry.2001.DVO.rus.Blu-ray EUR.dts
    Формат : DTS
    Формат/Информация : Digital Theater Systems
    Размер файла : 695 Мбайт
    Продолжительность : 2 ч. 8 м.
    Режим общего битрейта : Постоянный
    Общий поток : 755 Кбит/сек

    Аудио
    Формат : DTS
    Формат/Информация : Digital Theater Systems
    Режим : 16
    Параметр Endianness формата : Big
    Продолжительность : 2 ч. 8 м.
    Вид битрейта : Постоянный
    Битрейт : 755 Кбит/сек
    Каналы : 6 каналов
    Расположение каналов : Front: L C R, Side: L R, LFE
    Частота : 48,0 КГц
    Битовая глубина : 24 бит
    Метод сжатия : С потерями
    Размер потока : 695 Мбайт (100%)

    Общее
    Полное имя : D:VideoShpionskie igry.2001.x264.BDRip.720pShpionskie igry.2001.eng.SDH.srt
    Формат : SubRip
    Размер файла : 109 Кбайт

    Текст
    Формат : SubRip
    Метод сжатия : Без потерь

    Общее
    Полное имя : D:VideoShpionskie igry.2001.x264.BDRip.720pShpionskie igry.2001.Original.eng.ac3
    Формат : AC-3
    Формат/Информация : Audio Coding 3
    Размер файла : 405 Мбайт
    Продолжительность : 2 ч. 6 м.
    Режим общего битрейта : Постоянный
    Общий поток : 448 Кбит/сек

    Аудио
    Формат : AC-3
    Формат/Информация : Audio Coding 3
    Расширение режима : CM (complete main)
    Параметр Endianness формата : Big
    Продолжительность : 2 ч. 6 м.
    Вид битрейта : Постоянный
    Битрейт : 448 Кбит/сек
    Каналы : 6 каналов
    Расположение каналов : Front: L C R, Side: L R, LFE
    Частота : 48,0 КГц
    Битовая глубина : 16 бит
    Метод сжатия : С потерями
    Размер потока : 405 Мбайт (100%)

    Общее
    Полное имя : D:VideoShpionskie igry.2001.x264.BDRip.720pShpionskie igry.2001.rus.Blu-ray EUR.srt
    Формат : SubRip
    Размер файла : 89,9 Кбайт

    Текст
    Формат : SubRip
    Метод сжатия : Без потерь

    Общее
    Полное имя : D:VideoShpionskie igry.2001.x264.BDRip.720pShpionskie igry.2001.rus.Roq.srt
    Формат : SubRip
    Размер файла : 101 Кбайт

    Текст
    Формат : SubRip
    Метод сжатия : Без потерь

    Общее
    Уникальный идентификатор : 219964163183029658258885363562755179122 (0xA57B8E8E27EC9C46A3DA7C10EE20C272)
    Полное имя : D:VideoShpionskie igry.2001.x264.BDRip.720pShpionskie igry.2001.x264.BDRip.720p.mkv
    Формат : Matroska
    Версия формата : Version 4 / Version 2
    Размер файла : 5,29 Гбайт
    Продолжительность : 2 ч. 6 м.
    Общий поток : 5982 Кбит/сек
    Дата кодирования : UTC 2014-04-30 01:57:13
    Программа кодирования : mkvmerge v6.9.1 (;Blue Panther;) 64bit built on Apr 18 2014 18:23:38
    Библиотека кодирования : libebml v1.3.0 + libmatroska v1.4.1

    Видео
    Идентификатор : 1
    Формат : AVC
    Формат/Информация : Advanced Video Codec
    Профиль формата : High@L4.1
    Параметр CABAC формата : Да
    Параметр ReFrames формата : 9 кадров
    Идентификатор кодека : V_MPEG4/ISO/AVC
    Продолжительность : 2 ч. 6 м.
    Битрейт : 4167 Кбит/сек
    Ширина : 1280 пикселей
    Высота : 542 пикселя
    Соотношение сторон : 2,35:1
    Режим частоты кадров : Постоянный
    Частота кадров : 23,976 кадра/сек
    Цветовое пространство : YUV
    Субдискретизация насыщенности : 4:2:0
    Битовая глубина : 8 бит
    Тип развёртки : Прогрессивная
    Бит/(Пиксели*Кадры) : 0.250
    Размер потока : 3,69 Гбайт (70%)
    Заголовок : BDRip -- STarankov
    Библиотека кодирования : x264 core 138 r2358 9e941d1
    Залил: msltel
    Размер скачиваемого торрента: 7.70 GB (8267747745 Bytes)


    Шпионские игры / Spy Game (2001) BDRip 720p by msltel | D, P, P2, A скачать через торрент бесплатно
    загрузка...
    Рейтинг →
     (голосов: 1, оценка 3/5, голосовать можно 1 раз )

    Другие торренты по теме:

  • Шпионские игры / Spy Game (2001) BDRip 1080p от BT-Club торрент скачать бесплатно
  • Том и Джерри: Шпион Квест (Шпионские игры) / Tom and Jerry: Spy Quest (2015) DVD9 от New-Team | P | Лицензия скачать торрент бесплатно


    • Комментарии (0):

      Информация

      Информация

        Посетители, находящиеся в группе Гости, не могут оставлять комментарии в данной новости.

        ↓ Меню



        ↓ Опрос

        А Вы добавили сайт в закладки?
        Да
        Не


        Top 10 за неделю (Фильмы)