.
Авторизация | Регистрация
Хочешь лучшие торренты? Добавь свой email!
Добавить
» » Она / Her (2013) HDRip-AVC | iPad | P,A скачать через торрент бесплатно




    Она / Her (2013) HDRip-AVC | iPad | P,A скачать через торрент бесплатно

    Опубликовал: Админ | Дата: 27-02-2015, 11:10 | Просмотров: 181



    Она / Her (2013) HDRip-AVC | iPad | P,A

    Русское название: Она
    Русское название в мировом прокате: Her
    Создали в: 2013
    Категория жанра: Мелодрама, драма, фантастика
    Главный режиссер: Спайк Джонс
    Актеры: Хоакин Феникс, Эми Адамс, Руни Мара, Оливия Уайлд, Скарлетт Йоханссон, Линн А. Фридман, Лиза Рени Питтс, Гейб Гомез, Крис Прэтт, Артт Батлер, Мэй Линдстрём, Билл Хейдер, Кристен Уиг, Брайан Джонсон, Мэтт Летчер, Спайк Джонс

    Сюжет фильма:
    Одинокий писатель Теодор покупает новую техническую разработку — операционную систему, призванную исполнять любое желание пользователя. К его удивлению, вскоре между ним и операционной системой возникает роман...



    Снималось в: США
    Киностудия: Warner Bros., Annapurna Pictures

    Время просмотра: 02:05:50
    Перевод текста: Русский профессиональный многоголосый закадровый, русский авторский

    Файл
    Кодек для видео: H.264
    Качество фильма: HDRip-AVC 576p
    Информация о видео: 1024x554 (1.85:1) at 23.976 fps, AVC at 1860 kbps
    Информация о звуке:
    1: АAС 2.0 129 kbps - Русский профессиональный многоголосый закадровый (Гараж Дубляж)
    2: АAС 2.0 129 kbps - Русский авторский (Алексей Матвеев)
    3: АAС 2.0 129 kbps - Английский
    Субтитры: Русский, Английский

    MI

    General
    Complete name : C:CREATE264mod1outHer.2013.576p.P.A.m4v
    Format : MPEG-4
    Codec ID : M4V
    File size : 1.98 GiB
    Duration : 2h 5mn
    Overall bit rate mode : Variable
    Overall bit rate : 2 255 Kbps
    Movie name : Она
    Performer : Спайк Джонс
    Genre : Drama
    ContentType : Short Film
    Deion : Теодор — одинокий писатель, покупает новую техническую разработку — операционную систему, призванную исполнять любое желание пользователя. К удивлению Теодора, вскоре между ним и операционной системой возникает роман.
    Recorded date : UTC 2013-10-12 08:00:00
    Encoded date : UTC 2014-04-30 08:26:36
    Tagged date : UTC 2014-04-30 08:52:29
    Copyright : Annapurna Pictures
    Cover : Yes
    ContentRating : mpaa|R|400|

    Title/Sort : Her
    LongDeion : Теодор — одинокий писатель, покупает новую техническую разработку — операционную систему, призванную исполнять любое желание пользователя. К удивлению Теодора, вскоре между ним и операционной системой возникает роман.
    AppleStoreCatalogID : 810314926
    Vendor : Apple:vendor_id:2013-577488

    Video
    ID : 1
    Format : AVC
    Format/Info : Advanced Video Codec
    Format profile : High@L4.1
    Format settings, CABAC : Yes
    Format settings, ReFrames : 11 frames
    Codec ID : avc1
    Codec ID/Info : Advanced Video Coding
    Duration : 2h 5mn
    Bit rate : 1 863 Kbps
    Maximum bit rate : 11.7 Mbps
    Width : 1 024 pixels
    Height : 554 pixels
    Display aspect ratio : 1.85:1
    Frame rate mode : Constant
    Frame rate : 23.976 fps
    Color space : YUV
    Chroma subsampling : 4:2:0
    Bit depth : 8 bits
    Scan type : Progressive
    Bits/(Pixel*Frame) : 0.137
    Stream size : 1.64 GiB (83%)
    Title : Her _2013_
    Language : English
    Encoded date : UTC 2014-04-30 08:26:36
    Tagged date : UTC 2014-04-30 08:27:04
    Matrix coefficients : BT.709

    Audio #1
    ID : 2
    Format : AAC
    Format/Info : Advanced Audio Codec
    Format profile : LC
    Codec ID : 40
    Duration : 2h 5mn
    Bit rate mode : Variable
    Bit rate : 125 Kbps
    Maximum bit rate : 166 Kbps
    Channel(s) : 2 channels
    Channel positions : Front: L R
    Sampling rate : 48.0 KHz
    Compression mode : Lossy
    Stream size : 113 MiB (6%)
    Title : MVO
    Language : Russian
    Encoded date : UTC 2014-04-30 08:18:13
    Tagged date : UTC 2014-04-30 08:27:04

    Audio #2
    ID : 3
    Format : AAC
    Format/Info : Advanced Audio Codec
    Format profile : LC
    Codec ID : 40
    Duration : 2h 5mn
    Bit rate mode : Variable
    Bit rate : 127 Kbps
    Maximum bit rate : 170 Kbps
    Channel(s) : 2 channels
    Channel positions : Front: L R
    Sampling rate : 48.0 KHz
    Compression mode : Lossy
    Stream size : 114 MiB (6%)
    Title : AVO
    Language : Russian
    Encoded date : UTC 2014-04-30 08:20:39
    Tagged date : UTC 2014-04-30 08:27:04

    Audio #3
    ID : 4
    Format : AAC
    Format/Info : Advanced Audio Codec
    Format profile : LC
    Codec ID : 40
    Duration : 2h 5mn
    Bit rate mode : Variable
    Bit rate : 125 Kbps
    Maximum bit rate : 168 Kbps
    Channel(s) : 2 channels
    Channel positions : Front: L R
    Sampling rate : 48.0 KHz
    Compression mode : Lossy
    Stream size : 112 MiB (6%)
    Title : Original
    Language : English
    Encoded date : UTC 2014-04-30 08:23:37
    Tagged date : UTC 2014-04-30 08:27:04

    Text #1
    ID : 5
    Format : Timed Text
    Muxing mode : sbtl
    Codec ID : tx3g
    Duration : 1h 38mn
    Bit rate mode : Variable
    Bit rate : 1 bps
    Stream size : 769 Bytes (0%)
    Title : Subtitle Russian
    Language : Russian
    Encoded date : UTC 2014-04-30 08:27:04
    Tagged date : UTC 2014-04-30 08:27:04

    Text #2
    ID : 6
    Format : Timed Text
    Muxing mode : sbtl
    Codec ID : tx3g
    Duration : 2h 5mn
    Bit rate mode : Variable
    Bit rate : 74 bps
    Stream size : 68.5 KiB (0%)
    Title : Subtitle English
    Language : English
    Encoded date : UTC 2014-04-30 08:27:04
    Tagged date : UTC 2014-04-30 08:27:04

    Menu
    ID : 7
    Codec ID : text
    Duration : 2h 5mn
    Encoded date : UTC 2014-04-30 08:27:39
    Tagged date : UTC 2014-04-30 08:27:39
    Bit rate mode : CBR

    iTunes tags


    Sort Name: Her
    XID: Apple:vendor_id:2013-577488
    Content ID: 810314926
    Copyright: Annapurna Pictures
    ScreenWriters: Спайк Джонс
    Producers: Челси Барнард, Меган Эллисон, Натали Фэррей
    Director: Спайк Джонс
    Cast: Хоакин Феникс, Эми Адамс, Руни Мара, Оливия Уайлд, Скарлетт Йоханссон, Линн А. Фридман, Лиза Рени Питтс, Гейб Гомез, Крис Прэтт, Артт Батлер // Joaquin Phoenix (Theodore), Scarlett Johansson (Samantha (voice)), Rooney Mara (Catherine), Amy Adams (Amy), Olivia Wilde (Blind Date), Chris Pratt (Paul), Portia Doubleday (Isabella), Sam Jaeger (Dr. Johnson), Katherine Boecher, Kelly Sarah (Bikini Beach Babe), Spike Jonze (Alien Child), Bill Hader (Chat Room Friend #2), Kristen Wiig (Sexy Kitten), Brian Cox (Alan Watts (voice))
    Rating: R
    Long Deion: Теодор — одинокий писатель, покупает новую техническую разработку — операционную систему, призванную исполнять любое желание пользователя. К удивлению Теодора, вскоре между ним и операционной системой возникает роман.
    Deion: Теодор — одинокий писатель, покупает новую техническую разработку — операционную систему, призванную исполнять любое желание пользователя. К удивлению Теодора, вскоре между ним и операционной системой возникает роман.
    Release Date: 2013-10-12T08:00:00Z
    Genre: Drama
    Artist: Спайк Джонс
    Name: Она

    x264

    x264 info: frame I:1064 Avg QP:14.66 size: 69767
    x264 info: frame P:31784 Avg QP:17.62 size: 23069
    x264 info: frame B:148181 Avg QP:19.25 size: 6415


    full-size screenshots
















    Залил: gekka
    Размер скачиваемого торрента: 1.98 GB (2128035321 Bytes)

    Она / Her (2013) HDRip-AVC | iPad | P,A скачать через торрент бесплатно
    загрузка...
    Рейтинг →
     (голосов: 1, оценка 5/5, голосовать можно 1 раз )

    Другие торренты по теме:

  • Она больше не говорит, она стреляет / Elle cause plus, elle flingue (1972) DVDRip от Brazzass
  • Она не только болтает, она всех мочит / Elle cause plus, elle flingue (1972) DVDRip-AVC от -=HD-NET=-
  • Она не пьет, не курит, не клеит парней, но она... болтает! / Elle boit pas... (1969) DVDRip | L1 скачать через торрент бесплатно
  • Она не пьет, не курит, не клеит парней, но она... болтает! / Elle boit pas, elle fume pas, elle drague pas, mais... elle cause! (1969) DVDRip-AVC | L1
  • Он и Она / Him Her (2012) HDTVRip
  • Она и Её Кот / She and Her Cat / She and Her Cat / Kanojo to Kanojo no neko (1999) BDRip от Мифоград | L2
  • А.Ч. Бхактиведанта Свами Прабхупада - Бхагавад-гита как она есть (2005) MP3, PDF
  • Познавательное ТВ: Путинская Россия как она есть (2013) HD 720p


    • Комментарии (0):

      Информация

      Информация

        Посетители, находящиеся в группе Гости, не могут оставлять комментарии в данной новости.

        ↓ Меню



        ↓ Опрос

        А Вы добавили сайт в закладки?
        Да
        Не


        Top 10 за месяц (Фильмы)