.
Авторизация | Регистрация
» » Лучшие дни впереди / Les beaux jours (2013) BDRip-AVC | iPad | P скачать через торрент бесплатно




    Лучшие дни впереди / Les beaux jours (2013) BDRip-AVC | iPad | P скачать через торрент бесплатно

    Опубликовал: Админ | Дата: 27-02-2015, 11:10 | Просмотров: 266



    Лучшие дни впереди / Les beaux jours (2013) BDRip-AVC | iPad | P



    Русское название: Лучшие дни впереди
    Русское название в мировом прокате: Les beaux jours
    Создали в: 2013
    Категория жанра: драма, комедия
    Главный режиссер: Марион Верну
    Актеры: Фанни Ардан, Лоран Лафитт, Патрик Шенэ, Жан-Франсуа Стевенен, Фанни Коттансон, Катрин Лашанс, Ален Коши, Мари Ривьер, Марк Шапито, Федор Аткин

    Сюжет фильма:
    Кто сказал, что уход на пенсию - это начало конца, а не новое начало? Каролина делает совсем не то, чего от неё ждут: заводит любовника, получает новые впечатления, нарушает установленные правила и, в конечном счёте, вновь становится хозяйкой своей жизни и переживает вторую молодость.



    Снималось в: Франция
    Киностудия: Les Films du Kiosque, 27.11 Production, Direct Cinema

    Время просмотра: 01:34:15
    Перевод текста: Русский профессиональный закадровый многоголосый

    Файл
    Кодек для видео: H.264
    Качество фильма: BDRip 576p
    Информация о видео: 956x576 (1.660) at 24.000 fps, AVC at 2700 kbps
    Информация о звуке:
    1: АAС 2.0 144 kbps - Русский профессиональный закадровый многоголосый
    2: АAС 2.0 144 kbps - Французский
    Субтитры: отсутствуют

    MI

    General
    Complete name : I:modoutLes.beaux.jours.2013.576p.P.m4v
    Format : MPEG-4
    Codec ID : M4V
    File size : 2.03 GiB
    Duration : 1h 34mn
    Overall bit rate mode : Variable
    Overall bit rate : 3 087 Kbps
    Movie name : Лучшие дни впереди
    Performer : Marion Vernoux
    Genre : Drama
    ContentType : Short Film
    Deion : Кто сказал, что уход на пенсию — это начало конца, а не новое начало? Каролина делает совсем не то, чего от неё ждут: заводит любовника, получает новые впечатления, нарушает установленные правила и, в конечном счёте, вновь становится хозяйкой...
    Recorded date : UTC 2013-06-12 08:00:00
    Encoded date : UTC 2014-05-05 10:35:10
    Tagged date : UTC 2014-05-05 10:38:24
    Copyright : Les Films du Kiosque, 27.11 Production, Direct Cinema
    Cover : Yes
    ContentRating : fr-movie|-16|375|

    Title/Sort : Les Beaux Jours
    LongDeion : Кто сказал, что уход на пенсию — это начало конца, а не новое начало? Каролина делает совсем не то, чего от неё ждут: заводит любовника, получает новые впечатления, нарушает установленные правила и, в конечном счёте, вновь становится хозяйкой своей жизни и переживает вторую молодость.
    AppleStoreCatalogID : 707731
    Vendor : Apple:vendor_id:2013-707731

    Video
    ID : 1
    Format : AVC
    Format/Info : Advanced Video Codec
    Format profile : High@L4.1
    Format settings, CABAC : Yes
    Format settings, ReFrames : 9 frames
    Codec ID : avc1
    Codec ID/Info : Advanced Video Coding
    Duration : 1h 34mn
    Bit rate : 2 780 Kbps
    Maximum bit rate : 10.0 Mbps
    Width : 956 pixels
    Height : 576 pixels
    Display aspect ratio : 1.660
    Frame rate mode : Constant
    Frame rate : 24.000 fps
    Color space : YUV
    Chroma subsampling : 4:2:0
    Bit depth : 8 bits
    Scan type : Progressive
    Bits/(Pixel*Frame) : 0.210
    Stream size : 1.83 GiB (90%)
    Title : Les.beaux.jours.2013
    Language : English
    Encoded date : UTC 2014-05-05 10:35:10
    Tagged date : UTC 2014-05-05 10:35:36
    Matrix coefficients : BT.709

    Audio #1
    ID : 2
    Format : AAC
    Format/Info : Advanced Audio Codec
    Format profile : LC
    Codec ID : 40
    Duration : 1h 34mn
    Bit rate mode : Variable
    Bit rate : 144 Kbps
    Maximum bit rate : 203 Kbps
    Channel(s) : 2 channels
    Channel positions : Front: L R
    Sampling rate : 48.0 KHz
    Compression mode : Lossy
    Stream size : 99.0 MiB (5%)
    Title : MVO R5
    Language : Russian
    Encoded date : UTC 2014-05-05 10:27:07
    Tagged date : UTC 2014-05-05 10:35:36

    Audio #2
    ID : 3
    Format : AAC
    Format/Info : Advanced Audio Codec
    Format profile : LC
    Codec ID : 40
    Duration : 1h 34mn
    Bit rate mode : Variable
    Bit rate : 149 Kbps
    Maximum bit rate : 217 Kbps
    Channel(s) : 2 channels
    Channel positions : Front: L R
    Sampling rate : 48.0 KHz
    Compression mode : Lossy
    Stream size : 100 MiB (5%)
    Title : Original
    Language : French
    Encoded date : UTC 2014-05-05 10:32:37
    Tagged date : UTC 2014-05-05 10:35:36

    Menu
    ID : 4
    Codec ID : text
    Duration : 1h 34mn
    Encoded date : UTC 2014-05-05 10:35:50
    Tagged date : UTC 2014-05-05 10:35:50
    Bit rate mode : CBR

    x264

    x264 info: frame I:938 Avg QP:15.60 size: 86122
    x264 info: frame P:32253 Avg QP:18.17 size: 29754
    x264 info: frame B:102536 Avg QP:20.43 size: 9017
    x264 info: consecutive B-frames: 3.3% 3.2% 9.4% 23.3% 21.6% 32.9% 3.4% 1.3% 0.7% 0.3% 0.2% 0.1% 0.1% 0.2% 0.1%
    x264 info: mb I I16..4: 10.1% 59.6% 30.3%
    x264 info: mb P I16..4: 0.7% 8.1% 1.9% P16..4: 31.5% 34.9% 13.9% 4.3% 0.8% skip: 4.0%
    x264 info: mb B I16..4: 0.1% 0.8% 0.2% B16..8: 33.6% 19.3% 3.2% direct: 5.3% skip:37.6% L0:36.6% L1:44.4% BI:18.9%
    x264 info: 8x8 transform intra:73.3% inter:45.2%
    x264 info: coded y,uvDC,uvAC intra: 92.5% 77.9% 53.5% inter: 22.2% 13.4% 6.0%
    x264 info: i16 v,h,dc,p: 19% 8% 5% 68%
    x264 info: i8 v,h,dc,ddl,ddr,vr,hd,vl,hu: 11% 10% 5% 9% 13% 13% 13% 13% 13%
    x264 info: i4 v,h,dc,ddl,ddr,vr,hd,vl,hu: 13% 9% 4% 8% 15% 14% 13% 11% 12%
    x264 info: i8c dc,h,v,p: 31% 27% 21% 21%
    x264 info: Weighted P-Frames: Y:2.4% UV:1.1%
    x264 info: ref P L0: 59.6% 10.4% 12.7% 5.2% 3.8% 3.0% 2.4% 1.4% 1.3% 0.3% 0.0%
    x264 info: ref B L0: 88.0% 5.5% 2.7% 1.3% 1.0% 0.7% 0.6% 0.3%
    x264 info: ref B L1: 95.5% 4.5%
    x264 info: kb/s:2779.69
    iTunes Tags


    Sort Name: Les Beaux Jours
    XID: Apple:vendor_id:2013-707731
    Content ID: 707731
    Copyright: Les Films du Kiosque, 27.11 Production, Direct Cinema
    ScreenWriters: Фанни Шенель, Марион Верну, Марк Сирига
    Producers: Франсуа Краус, Дени Пино-Валенсьенн, Джульетт Рено
    Director: Марион Верну
    Cast: Фанни Ардан, Лоран Лафитт, Патрик Шенэ, Жан-Франсуа Стевенен, Фанни Коттансон, Катрин Лашанс, Ален Коши, Мари Ривьер, Марк Шапито // Fanny Ardant (Caroline), Laurent Lafitte (Julien), Patrick Chesnais (Philippe), Jean-Francois Stevenin (Roger), Fanny Cottencon (Chantal), Catherine Lachens (Sylviane), Alain Cauchi (Jacky), Marie Riviere (Jocelyne)
    Rating: -16
    Long Deion: Кто сказал, что уход на пенсию — это начало конца, а не новое начало? Каролина делает совсем не то, чего от неё ждут: заводит любовника, получает новые впечатления, нарушает установленные правила и, в конечном счёте, вновь становится хозяйкой своей жизни и переживает вторую молодость.
    Deion: Кто сказал, что уход на пенсию — это начало конца, а не новое начало? Каролина делает совсем не то, чего от неё ждут: заводит любовника, получает новые впечатления, нарушает установленные правила и, в конечном счёте, вновь становится хозяйкой...
    Release Date: 2013-06-12T08:00:00Z
    Genre: Drama
    Artist: Marion Vernoux
    Name: Лучшие дни впереди



    full-size screenshots












    Залил: gekka
    Размер скачиваемого торрента: 2.03 GB (2182418955 Bytes)

    Лучшие дни впереди / Les beaux jours (2013) BDRip-AVC | iPad | P скачать через торрент бесплатно
    загрузка...
    Рейтинг →
     (голосов: 1, оценка 5/5, голосовать можно 1 раз )

    Другие торренты по теме:

  • Лучшие дни впереди / Les beaux jours (2013) DVDRip | P торрент скачать бесплатно
  • Лучшие дни впереди / Bright Days Ahead (2013) BDRip 720p от CINEMANIA | P скачать через торрент бесплатно
  • Лучшие дни впереди / Bright Days Ahead (2013) BDRip 1080p от CINEMANIA | P скачать через торрент бесплатно


    • Комментарии (0):

      Информация

      Информация

        Посетители, находящиеся в группе Гости, не могут оставлять комментарии в данной новости.

        ↓ Меню



        ↓ Опрос

        А Вы добавили сайт в закладки?
        Да
        Не


        Top 10 за неделю (Фильмы)