.
Авторизация | Регистрация
Хочешь лучшие торренты? Добавь свой email!
Добавить
» » Мастер кунг-фу / Мастер Багуа / Сказание о наставнике Багуа / The Kungfu Master / Ba Gua Zong Shi (2012) DVDScreener от BTT-TEAM скачать через торрент бесплатно




    Мастер кунг-фу / Мастер Багуа / Сказание о наставнике Багуа / The Kungfu Master / Ba Gua Zong Shi (2012) DVDScreener от BTT-TEAM скачать через торрент бесплатно

    Опубликовал: Админ | Дата: 27-02-2015, 11:10 | Просмотров: 338



    Мастер кунг-фу / Мастер Багуа / Сказание о наставнике Багуа / The Kungfu Master / Ba Gua Zong Shi

    Снималось в: Китай
    Категория жанра: боевые искусства, драма
    Создали в: 2012
    Время просмотра: 01:50:18

    Перевод текста: Одноголосый закадровый
    Субтитры подготовлены: китайский/английский хардсаб

    Главный режиссер: Оу Лихао / Ou Li-Hao

    Актеры: Цзе Миу, Оу Лихао, Ванг Мей-Йинг, Брюс Леунг, Чанг Тао

    Сюжет: Дун Хайчуань — юный мастер кунг-фу, который на свою беду встает на пути у сына влиятельного чиновника. Тот пытается проучить обнаглевшую деревенщину, но в конце концов погибает сам, а Дун оказывается вне закона. Ему приходится уйти из дома и отправиться в странствия, в которых он сменит несколько учителей и в конце концов превратится в настоящего виртуоза боевых искусств.

    Релиз группы:

    Доп. информация: Перевод на русский Будо-Видео

    Озвучивание Ворон

    Прежде чем качать видео и комментировать, скачайте сэмпл и послушайте!

    Качество фильма видео: DVDScreener - Сэмпл
    Тип видео видео: AVI
    Информация о видео: 704x288 (2.44:1), 23.976 fps, XviD build 50 ~1705 kbps avg, 0.35 bit/pixel
    Информация о звуке: 48 kHz, AC3 Dolby Digital, 2/0 (L,R) ch, ~192 kbps

    Скриншоты для ознакомления




    отчет MediaInfo

    Формат : AVI
    Формат/Информация : Audio Video Interleave
    Размер файла : 1,47 Гбайт
    Продолжительность : 1 ч. 50 м.
    Общий поток : 1907 Кбит/сек
    Программа кодирования : VirtualDubMod 1.5.10.2 (build 2542/release)
    Библиотека кодирования : VirtualDubMod build 2542/release

    Видео
    Идентификатор : 0
    Формат : MPEG-4 Visual
    Профиль формата : Advanced Simple@L5
    Параметр BVOP формата : 2
    Параметр QPel формата : Нет
    Параметр GMC формата : Без точки перехода
    Параметр матрицы формата : Default (MPEG)
    Идентификатор кодека : XVID
    Идентификатор кодека/Подсказка : XviD
    Продолжительность : 1 ч. 50 м.
    Битрейт : 1706 Кбит/сек
    Ширина : 704 пикселя
    Высота : 288 пикселей
    Соотношение сторон : 2,40:1
    Частота кадров : 23,976 кадра/сек
    Цветовое пространство : YUV
    Субдискретизация насыщенности : 4:2:0
    Битовая глубина : 8 бит
    Тип развёртки : Прогрессивная
    Метод сжатия : С потерями
    Бит/(Пиксели*Кадры) : 0.351
    Размер потока : 1,31 Гбайт (89%)
    Библиотека кодирования : XviD 1.2.1 (UTC 2008-12-04)

    Аудио
    Идентификатор : 1
    Формат : AC-3
    Формат/Информация : Audio Coding 3
    Расширение режима : CM (complete main)
    Параметр Endianness формата : Big
    Идентификатор кодека : 2000
    Продолжительность : 1 ч. 50 м.
    Вид битрейта : Постоянный
    Битрейт : 192 Кбит/сек
    Каналы : 2 канала
    Расположение каналов : Front: L R
    Частота : 48,0 КГц
    Битовая глубина : 16 бит
    Метод сжатия : С потерями
    Размер потока : 151 Мбайт (10%)
    Выравнивание : Разделение по промежуткам
    Продолжительность промежутка : 42 мс. (1,00 видеокадр)
    Время предзагрузки промежутка : 500 мс.

    Размер скачиваемого торрента: 1.47 GB (1577953280 Bytes)

    Мастер кунг-фу / Мастер Багуа / Сказание о наставнике Багуа / The Kungfu Master / Ba Gua Zong Shi (2012) DVDScreener от BTT-TEAM скачать через торрент бесплатно
    загрузка...
    Рейтинг →
     (голосов: 1, оценка 3/5, голосовать можно 1 раз )

    Другие торренты по теме:

  • Опиум и мастер кунг-фу / Opium and the Kung-fu Master / Hung kuen dai see (1984) BDRip-AVC от MediaClub | A
  • Маленькая любовь / Мастер кунг-фу! / Le Petite Amour / Kung-fu master! (1988) TVRip | L1
  • Мастер кунг-фу по имени Пьяный кот / Kung Fu Master Named Drunk Cat / Zui mao shi fu (1978) DVD5 | A


    • Комментарии (0):

      Информация

      Информация

        Посетители, находящиеся в группе Гости, не могут оставлять комментарии в данной новости.

        ↓ Меню



        ↓ Опрос

        А Вы добавили сайт в закладки?
        Да
        Не


        Top 10 за месяц (Фильмы)