.
Авторизация | Регистрация
Хочешь лучшие торренты? Добавь свой email!
Добавить
» » Красавица Мемфиса / Memphis Belle (1990) BDRip by msltel | D, A скачать через торрент бесплатно




    Красавица Мемфиса / Memphis Belle (1990) BDRip by msltel | D, A скачать через торрент бесплатно

    Опубликовал: Админ | Дата: 27-02-2015, 11:10 | Просмотров: 269



    Русское название: Мемфисская красотка (Красавица Мемфиса)
    Русское название в мировом прокате: Memphis Belle
    Создали в: 1990
    Категория жанра: Боевик, драма, военный
    Снималось в: США, Япония, Великобритания, BSB, County Natwest Ventures, Enigma Film , Fujisankei, Warner Bros. Pictures Co.
    Главный режиссер: Майкл Кейтон-Джонс
    Актеры: Мэттью Модайн, Эрик Штольц, Тейт Донован, Д.Б. Суини, Билли Зейн, Шон Эстин, Гарри Конник мл., Рид Даймонд, Кортни Гейнс, Нил Джунтоли

    Сюжет фильма: В основу картины положен реальный эпизод из истории Второй мировой войны, который был впервые документально изложен легендарным Уильямом Уайлером. Герои фильма — экипаж бомбардировщика Б-17 Красавица Мемфиса — уже провели с риском для жизни двадцать четыре воздушные операции. Осталась последняя и самая опасная — двадцать пятая…

    Качество фильма: BDRip
    Информация о видео: XviD, 1904 Кбит/с, 720x400
    Информация о звуке: Русский (AC3, 2 ch, 192 Кбит/с), английский (AC3, 6 ch, 448 Кбит/с)
    Размер скачиваемого торрента: 2.06 ГБ
    Время просмотра: 01:47:11
    Перевод текста: Дублированный, авторский (Юрий Живов)
    Субтитры: Английские (для слабослышащих)

    Исходник: alinto (HDtracker)

    Сравнение с исходником



    MediaInfo
    Общее
    Полное имя : D:VideoKrasavica Memfisa.1990 XviD.BDRipKrasavica Memfisa.1990 eng.SDH.srt
    Размер файла : 197 Кбайт

    Общее
    Полное имя : D:VideoKrasavica Memfisa.1990 XviD.BDRipKrasavica Memfisa.1990 Original.eng.ac3
    Формат : AC-3
    Формат/Информация : Audio Coding 3
    Размер файла : 343 Мбайт
    Продолжительность : 1 ч. 47 м.
    Режим общего битрейта : Постоянный
    Общий поток : 448 Кбит/сек

    Аудио
    Формат : AC-3
    Формат/Информация : Audio Coding 3
    Расширение режима : CM (complete main)
    Параметр Endianness формата : Big
    Продолжительность : 1 ч. 47 м.
    Вид битрейта : Постоянный
    Битрейт : 448 Кбит/сек
    Каналы : 6 каналов
    Расположение каналов : Front: L C R, Side: L R, LFE
    Частота : 48,0 КГц
    Битовая глубина : 16 бит
    Метод сжатия : С потерями
    Размер потока : 343 Мбайт (100%)

    Общее
    Полное имя : D:VideoKrasavica Memfisa.1990 XviD.BDRipKrasavica Memfisa.1990 XviD.BDRip.avi
    Формат : AVI
    Формат/Информация : Audio Video Interleave
    Размер файла : 1,72 Гбайт
    Продолжительность : 1 ч. 47 м.
    Общий поток : 2302 Кбит/сек
    Программа кодирования : VirtualDubMod 1.5.10.2 (build 2540/release)
    Библиотека кодирования : VirtualDubMod build 2540/release

    Видео
    Идентификатор : 0
    Формат : MPEG-4 Visual
    Профиль формата : Advanced Simple@L5
    Параметр BVOP формата : 1
    Параметр QPel формата : Нет
    Параметр GMC формата : Без точки перехода
    Параметр матрицы формата : Default (H.263)
    Режим смешивания : Сжатый битовый поток
    Идентификатор кодека : XVID
    Идентификатор кодека/Подсказка : XviD
    Продолжительность : 1 ч. 47 м.
    Битрейт : 1904 Кбит/сек
    Ширина : 720 пикселей
    Высота : 400 пикселей
    Соотношение сторон : 16:9
    Частота кадров : 23,976 кадра/сек
    Цветовое пространство : YUV
    Субдискретизация насыщенности : 4:2:0
    Битовая глубина : 8 бит
    Тип развёртки : Прогрессивная
    Метод сжатия : С потерями
    Бит/(Пиксели*Кадры) : 0.276
    Размер потока : 1,43 Гбайт (83%)
    Библиотека кодирования : XviD 1.2.1 (UTC 2008-12-04)

    Аудио #1
    Идентификатор : 1
    Формат : AC-3
    Формат/Информация : Audio Coding 3
    Расширение режима : CM (complete main)
    Параметр Endianness формата : Big
    Идентификатор кодека : 2000
    Продолжительность : 1 ч. 47 м.
    Вид битрейта : Постоянный
    Битрейт : 192 Кбит/сек
    Каналы : 2 канала
    Расположение каналов : Front: L R
    Частота : 48,0 КГц
    Битовая глубина : 16 бит
    Метод сжатия : С потерями
    Размер потока : 147 Мбайт (8%)
    Выравнивание : Разделение по промежуткам
    Продолжительность промежутка : 42 мс. (1,00 видеокадр)
    Время предзагрузки промежутка : 500 мс.

    Аудио #2
    Идентификатор : 2
    Формат : AC-3
    Формат/Информация : Audio Coding 3
    Расширение режима : CM (complete main)
    Параметр Endianness формата : Big
    Идентификатор кодека : 2000
    Продолжительность : 1 ч. 47 м.
    Вид битрейта : Постоянный
    Битрейт : 192 Кбит/сек
    Каналы : 2 канала
    Расположение каналов : Front: L R
    Частота : 48,0 КГц
    Битовая глубина : 16 бит
    Метод сжатия : С потерями
    Размер потока : 147 Мбайт (8%)
    Выравнивание : Разделение по промежуткам
    Продолжительность промежутка : 42 мс. (1,00 видеокадр)
    Время предзагрузки промежутка : 500 мс.
    Скриншоты для ознакомления


    Залил: msltel
    Размер скачиваемого торрента: 2.06 GB (2210931938 Bytes)

    Красавица Мемфиса / Memphis Belle (1990) BDRip by msltel | D, A скачать через торрент бесплатно
    загрузка...
    Рейтинг →
     (голосов: 1, оценка 5/5, голосовать можно 1 раз )

    Другие торренты по теме:



      Комментарии (0):

      Информация

      Информация

        Посетители, находящиеся в группе Гости, не могут оставлять комментарии в данной новости.

        ↓ Меню



        ↓ Опрос

        А Вы добавили сайт в закладки?
        Да
        Не


        Top 10 за месяц (Фильмы)