.
Авторизация | Регистрация
Хочешь лучшие торренты? Добавь свой email!
Добавить
» » Открытый простор / Open Range (2003) DVDRip | D, P, A скачать через торрент бесплатно




    Открытый простор / Open Range (2003) DVDRip | D, P, A скачать через торрент бесплатно

    Опубликовал: Админ | Дата: 27-02-2015, 11:10 | Просмотров: 195





    Снималось в: США
    Создали в: Beacon Pictures, Cobalt Media Group, Tig Productions, Touchstone Pictures
    Категория жанра: Вестерн
    Создали в: 2003

    Время просмотра: 02:12:58

    Перевод текста: Дублированный, профессиональный многоголосый, авторский

    Оригинальная аудиодорожка: Английская

    Главный режиссер: Кевин Костнер

    Актеры: Роберт Дювалл, Кевин Костнер, Аннетт Бенинг, Майкл Гэмбон, Майкл Джитер, Диего Луна, Джеймс Руссо, Абрахам Бенруби, Дин МакДермотт, Ким Коутс

    Сюжет: Лишь на бескрайних просторах Америки Чарли Уэйт и Босс Спирмэн чувствуют воздух свободы. Смутное прошлое заставляет их оставаться в седле, сторонясь городов и людей. Но что-то меняется в душе одиночки Уэйта, когда он встречает Сью Барлоу там, где кое-кто взялся вершить свой закон. И когда напарники оказались связаны местью, то были уверены только в одном: что не станут бежать от опасности никогда!



    Исходник: DVD5 R2

    Тип релиза: DVDRip

    Контейнер: AVI

    Информация о видео: XviD, 1518 Кбит/с, 688х288
    Информация о звуке: Русский, английский (АС3, 2 ch, 192 Кбит/с)

    Перевод

    1. Дублированный
    2. Профессиональный многоголосый
    3. Авторский (Карповский)
    4. Английский
    MediaInfo
    Общее
    Полное имя : D:залитьОткрытый простор.avi
    Формат : AVI
    Формат/Информация : Audio Video Interleave
    Профиль формата : OpenDML
    Размер файла : 2,15 Гбайт
    Продолжительность : 2 ч. 12 м.
    Общий поток : 2318 Кбит/сек
    Программа кодирования : VirtualDubMod 1.5.10.2 (build 2540/release)
    Библиотека кодирования : VirtualDubMod build 2540/release

    Видео
    Идентификатор : 0
    Формат : MPEG-4 Visual
    Профиль формата : Advanced Simple@L5
    Параметр BVOP формата : 2
    Параметр QPel формата : Нет
    Параметр GMC формата : Без точки перехода
    Параметр матрицы формата : Default (MPEG)
    Идентификатор кодека : XVID
    Идентификатор кодека/Подсказка : XviD
    Продолжительность : 2 ч. 12 м.
    Битрейт : 1519 Кбит/сек
    Ширина : 688 пикселей
    Высота : 288 пикселей
    Соотношение сторон : 2,40:1
    Частота кадров : 23,976 кадра/сек
    Цветовое пространство : YUV
    Субдискретизация насыщенности : 4:2:0
    Битовая глубина : 8 бит
    Тип развёртки : Прогрессивная
    Метод сжатия : С потерями
    Бит/(Пиксели*Кадры) : 0.320
    Размер потока : 1,41 Гбайт (66%)
    Библиотека кодирования : XviD 1.2.1 (UTC 2008-12-04)

    Аудио #1
    Идентификатор : 1
    Формат : AC-3
    Формат/Информация : Audio Coding 3
    Расширение режима : CM (complete main)
    Параметр Endianness формата : Big
    Идентификатор кодека : 2000
    Продолжительность : 2 ч. 12 м.
    Вид битрейта : Постоянный
    Битрейт : 192 Кбит/сек
    Каналы : 2 канала
    Расположение каналов : Front: L R
    Частота : 48,0 КГц
    Битовая глубина : 16 бит
    Метод сжатия : С потерями
    Размер потока : 183 Мбайт (8%)
    Выравнивание : Разделение по промежуткам
    Продолжительность промежутка : 42 мс. (1,00 видеокадр)
    Время предзагрузки промежутка : 500 мс.

    Аудио #2
    Идентификатор : 2
    Формат : AC-3
    Формат/Информация : Audio Coding 3
    Расширение режима : CM (complete main)
    Параметр Endianness формата : Big
    Идентификатор кодека : 2000
    Продолжительность : 2 ч. 12 м.
    Вид битрейта : Постоянный
    Битрейт : 192 Кбит/сек
    Каналы : 2 канала
    Расположение каналов : Front: L R
    Частота : 48,0 КГц
    Битовая глубина : 16 бит
    Метод сжатия : С потерями
    Задержка видео : 8 мс.
    Размер потока : 183 Мбайт (8%)
    Выравнивание : Разделение по промежуткам
    Продолжительность промежутка : 42 мс. (1,00 видеокадр)
    Время предзагрузки промежутка : 500 мс.

    Аудио #3
    Идентификатор : 3
    Формат : AC-3
    Формат/Информация : Audio Coding 3
    Расширение режима : CM (complete main)
    Параметр Endianness формата : Big
    Идентификатор кодека : 2000
    Продолжительность : 2 ч. 12 м.
    Вид битрейта : Постоянный
    Битрейт : 192 Кбит/сек
    Каналы : 2 канала
    Расположение каналов : Front: L R
    Частота : 48,0 КГц
    Битовая глубина : 16 бит
    Метод сжатия : С потерями
    Задержка видео : 20 мс.
    Размер потока : 183 Мбайт (8%)
    Выравнивание : Разделение по промежуткам
    Продолжительность промежутка : 42 мс. (1,00 видеокадр)
    Время предзагрузки промежутка : 500 мс.

    Аудио #4
    Идентификатор : 4
    Формат : AC-3
    Формат/Информация : Audio Coding 3
    Расширение режима : CM (complete main)
    Параметр Endianness формата : Big
    Идентификатор кодека : 2000
    Продолжительность : 2 ч. 12 м.
    Вид битрейта : Постоянный
    Битрейт : 192 Кбит/сек
    Каналы : 2 канала
    Расположение каналов : Front: L R
    Частота : 48,0 КГц
    Битовая глубина : 16 бит
    Метод сжатия : С потерями
    Размер потока : 183 Мбайт (8%)
    Выравнивание : Разделение по промежуткам
    Продолжительность промежутка : 42 мс. (1,00 видеокадр)
    Время предзагрузки промежутка : 500 мс.



    Скриншоты для ознакомления


    Автор рипа:
    Залил: YArl
    Размер скачиваемого торрента: 2.15 GB (2311407616 Bytes)

    Открытый простор / Open Range (2003) DVDRip | D, P, A скачать через торрент бесплатно
    загрузка...
    Рейтинг →
     (голосов: 1, оценка 4/5, голосовать можно 1 раз )

    Другие торренты по теме:

  • OST - Открытый простор / Open Range (2003) MP3
  • Открытый простор / Open Range (2003) HDRip от Scarabey | P
  • Открытый простор / Open Range (2003) HDRip-AVC от WazZzup | D
  • Открытый простор / Open Range (2003) HDRip-AVC | iPhone
  • Открытый простор / Open Range (2003) BDRip 1080p скачать через торрент бесплатно


    • Комментарии (0):

      Информация

      Информация

        Посетители, находящиеся в группе Гости, не могут оставлять комментарии в данной новости.

        ↓ Меню



        ↓ Опрос

        А Вы добавили сайт в закладки?
        Да
        Не


        Top 10 за месяц (Фильмы)